Files 42316
» » Paris Hilton Ft Lil Wayne - Good Time 720p
Language: English
Size: 78.1 MB
Votes: 668
Downloaded: 47
Category: Video
Format: MP3, FLAC
4.8

File list

  • Paris Hilton Ft. Lil Wayne - Good Time [Explicit] 720p [Sbyky].mp4 (78.1 MB)

Good Time (Explicit Version). Авторы текста и музыки.

Good Time (Explicit Version). Adam Young, Brian Lee, Matt Thiessen. 50+ видео Воспроизвести все Микс – Paris Hilton Feat Lil Wayne Good Time 720pYouTube.

Produced by Afrojack. Are you having a good time Cause I'm having a good time And I might be a bit tipsy But that's okay cause you're with me Are you having a good time Cause I'm having a good time And I might be a bit tipsy But that's okay cause you're with me. I came here just to party Oh please, don't you hate on me, yeah Got my sexy girls with me Oh, I love it. Wo-oh, let's party Yeah, let's party, and have a good time Wo-oh, let's.

Good glamour times with billion princess Paris Hilton. Nasty jam from Azealia Banks featuring some back. Paris Hilton ft. Lil Wayne – Good Time (Explicit). Sanjay – Bad Up Di Luvy Music Video. Пляжный реггетон расслабон. Dancehall youngsters beach party.

Artist: Paris Hilton. I don't want to be known as the Hilton heiress, because I didn't do anything for that. Album: Good Time (feat. Lil Wayne) - Single, 2013.

Paris Hilton ft Lil Wayne – Last Night (FULL). Paris Hilton – Good Time. Paris Hilton – Good Time (EXPLICIT) ft Lil Wayne (Dave Day. :07. Lil Wayne – Good Time - v. om/soundvor. Lil Wayne – Last Night. Paris Hilton and Lil Wayne – Good Time. Lil Wayne - Good Time. Dropping A Popped Locket – I Thought I Saw Paris Hilton Nude One Nigh. :16. Paris Hilton – Untitled Feat Lil Wayne. 13 Paris Hilton feat. Lil Wayne – Good Time Club House, Vocal House 201. :36. Lil Wayne – Good Time.

Good Time" is a 2013 single by Paris Hilton from her unreleased second studio album. It was released on October 8, 2013, by Cash Money as the lead single from the record. The song was written and produced by her and Afrojack, with additional songwriting provided by Hilton and Lil Wayne. A single release party was held at SBE's Create Nightclub in Hollywood on October 8. It's her third top 20 hit on the US Billboard Hot Dance/Electronic Songs.

The party never stops for Paris Hilton, who has just released her nightclub-friendly comeback single "Good Time. Produced by Afrojack and featuring rapper Lil Wayne, the EDM headbanger’s music video shows Paris doing what she does best: writhing about in teeny bathing suits while she dances at a rave-inspired pool party, complete with smoke machines and glow sticks. I came here just to party, Don't you hate on me," sings Paris unapologetically. I might be a bit tipsy, But that's OK cause you're with me. Lil Wayne makes a shirtless appearance later on, rapping on the track and asking Paris if she speaks French.

Paris Hilton Parties With Lil Wayne in ‘Good Time’. Paris Hilton, queen of the nightclub circuit and recent Cash Money signee, makes her return to the music world with the release of her new single Good Time, featuring Lil Wayne and produced by DJ Afrojack

Paris Hilton Parties With Lil Wayne in ‘Good Time’. For me this song is so catchy and fun,’ she says. Paris Hilton, queen of the nightclub circuit and recent Cash Money signee, makes her return to the music world with the release of her new single Good Time, featuring Lil Wayne and produced by DJ Afrojack. The song’s an EDM-pulsing rave riot, with the video finding Hilton donning a sequenced bathing suit, partying with super soakers and posing with male models in speedos. And she’s quite unapolagetic about it all. I came here just to party/Don’t you hate on me, Hilton sings in the sugary hook. I might be a bit tipsy/It’s OK cause you’re with me.


General
Complete name : Paris Hilton Ft. Lil Wayne - Good Time [Explicit] 720p [Sbyky].mp4
Format : MPEG-4
Format profile : Base Media / Version 2
Codec ID : mp42
File size : 78.1 MiB
Duration : 3mn 46s
Overall bit rate mode : Variable
Overall bit rate : 2 894 Kbps
Encoded date : UTC 2013-10-08 02:45:40
Tagged date : UTC 2013-10-08 02:45:40
Video
ID : 1
Format : AVC
Format/Info : Advanced Video Codec
Format profile : [email protected]
Format settings, CABAC : Yes
Format settings, ReFrames : 1 frame
Codec ID : avc1
Codec ID/Info : Advanced Video Coding
Duration : 3mn 46s
Bit rate : 2 699 Kbps
Maximum bit rate : 5 908 Kbps
Width : 1 280 pixels
Height : 720 pixels
Display aspect ratio : 16:9
Frame rate mode : Constant
Frame rate : 23.976 fps
Color space : YUV
Chroma subsampling : 4:2:0
Bit depth : 8 bits
Scan type : Progressive
Bits/(Pixel*Frame) : 0.122
Stream size : 72.9 MiB (93%)
Tagged date : UTC 2013-10-08 02:45:43
Audio
ID : 2
Format : AAC
Format/Info : Advanced Audio Codec
Format profile : LC
Codec ID : 40
Duration : 3mn 46s
Bit rate mode : Variable
Bit rate : 192 Kbps
Maximum bit rate : 202 Kbps
Channel(s) : 2 channels
Channel positions : Front: L R
Sampling rate : 44.1 KHz
Compression mode : Lossy
Stream size : 5.18 MiB (7%)
Title : IsoMedia File Produced by Google, 5-11-2011
Encoded date : UTC 2013-10-08 02:45:42
Tagged date : UTC 2013-10-08 02:45:43
Shared By Sbyky

Related music:
2 Chainz - I'm Different 720p download 2 Chainz - I'm Different 720p
Video
English
76.5 MB
4.3
/images/5/0/2-chainz-i27m-different-720p-.jpg
Eminem - Berzerk 720p download Eminem - Berzerk 720p
Video
English
97.3 MB
4.2
/images/5/9/eminem-berzerk-720p-.jpg
John Legend - All Of Me 720p Music Video download John Legend - All Of Me 720p Music Video
Video
English
62.7 MB
4.1
/images/5/4/john-legend-all-of-me-720p-music-video-.jpg
Lil Wayne Ft Drake & Future - Love Me 720p download Lil Wayne Ft Drake & Future - Love Me 720p
Video
English
79.2 MB
4.4
/images/5/2/lil-wayne-ft-drake-26-future-love-me-720p-.jpg
Big Sean Ft Lil Wayne & Jhene Aiko - Beware 720p download Big Sean Ft Lil Wayne & Jhene Aiko - Beware 720p
Video
English
81.7 MB
4.9
/images/5/4/big-sean-ft-lil-wayne-26-jhene-aiko-beware-720p-.jpg
2 Chainz Ft Cap 1 - Where U Been 720p download 2 Chainz Ft Cap 1 - Where U Been 720p
Video
English
84.8 MB
4.7
/images/5/6/2-chainz-ft-cap-1-where-u-been-720p-.jpg
Ke$ha - Dirty Love 720p Music Video download Ke$ha - Dirty Love 720p Music Video
Video
English
77.0 MB
4.1
/images/5/7/ke24ha-dirty-love-720p-music-video-.jpg
Little Mix - Little Me 720p Music Video download Little Mix - Little Me 720p Music Video
Video
English
37.9 MB
4.1
/images/5/5/little-mix-little-me-720p-music-video-.jpg
Rihanna - Pour It Up 720p download Rihanna - Pour It Up 720p
Video
English
54.9 MB
4.7
/images/5/1/rihanna-pour-it-up-720p-.jpg