Files 42316
» » Rihanna - Sledgehammer 1080p mp4 From The Motion Picture Star Trek Beyond
Language: English
Size: 117.6 MB
Votes: 175
Downloaded: 20
Category: Video
Format: MP3, FLAC
4.4

File list

  • Rihanna - Sledgehammer (From The Motion Picture Star Trek Beyond) [P-DawG].mp4 (117.6 MB)

Download MP3. MP3 320Kbps, . 6 Mb MP3 128Kbps, . 2 Mb. Rihanna. 1 2 3 4 5. Related songs.

Перевод текста песни Sledgehammer исполнителя (группы) Rihanna. And I will rise up from the ashes now, the ashes now. И теперь я восстану из пепла. Oh, the sparrow flies with just the crumbs of loving spilled, yeah.

Rihanna - Sledgehammer The Greatest Showman. 20th CENTURY FOX SG 21,946,833 views.

Rihanna - Sledgehammer. The Greatest Showman.

Live Long and Prosper. S Enterprise ❤Star Trek.

1,845,523 followers1. Release date: 27 June 2016.

Rihanna - Sledgehammer (From The Motion Picture "Star Trek Beyond"). Download via torrent Download via magnet. not logged in. Random Downloads

Rihanna - Sledgehammer (From The Motion Picture "Star Trek Beyond"). Random Downloads. 1 2 3 4 5 6 7 8 9 10 11 12 13 14 15 16 17 18 19 20 21 22 23 24 25 26 27 28 29 30 31 32 33 34 35 36 37 38 39 40 41 42 43 44 45 46 47 48 49 50. Downloads.

[P-DawG]

Cover:-

Screens:-
https://extraimage.net/image/aFBh
General Info:-
General
Complete name : Rihanna - Sledgehammer (From The Motion Picture Star Trek Beyond) [P-DawG].mp4
Format : MPEG-4
Format profile : Base Media
Codec ID : isom
File size : 118 MiB
Duration : 3mn 55s
Overall bit rate : 4 195 Kbps
Movie name : Sledgehammer (From The Motion Picture Star Trek Beyond)
Performer : Rihanna
Genre : Pop
Video
ID : 1
Format : AVC
Format/Info : Advanced Video Codec
Format profile : [email protected]
Format settings, CABAC : Yes
Format settings, ReFrames : 2 frames
Codec ID : avc1
Codec ID/Info : Advanced Video Coding
Duration : 3mn 55s
Bit rate mode : Variable
Bit rate : 4 062 Kbps
Width : 1 920 pixels
Height : 1 080 pixels
Display aspect ratio : 16:9
Frame rate mode : Constant
Frame rate : 23.976 fps
Stream size : 114 MiB (97%)
Audio
ID : 2
Format : AAC
Format/Info : Advanced Audio Codec
Format profile : LC
Codec ID : 40
Duration : 3mn 55s
Bit rate mode : Constant
Bit rate : 126 Kbps
Channel(s) : 2 channels
Channel positions : Front: L R
Sampling rate : 44.1 KHz
Compression mode : Lossy
Stream size : 3.52 MiB (3%)

Related music:
Tyga - Ice Cream Man 1080p mp4 download Tyga - Ice Cream Man 1080p mp4
Video
English
105.5 MB
4.4
/images/5/5/tyga-ice-cream-man-1080p-mp4.jpg
Coldplay - Adventure Of A Lifetime 1080p mp4 download Coldplay - Adventure Of A Lifetime 1080p mp4
Video
English
153.1 MB
4.2
/images/5/1/coldplay-adventure-of-a-lifetime-1080p-mp4.jpg
Sean Kingston - One A Way 1080p mp4 download Sean Kingston - One A Way 1080p mp4
Video
English
97.6 MB
4.6
/images/5/9/sean-kingston-one-a-way-1080p-mp4.jpg
Adele - Hello 1080p mp4 download Adele - Hello 1080p mp4
Video
English
103.8 MB
4.7
/images/5/9/adele-hello-1080p-mp4.jpg
ZAYN - LIKE I WOULD 1080p mp4 download ZAYN - LIKE I WOULD 1080p mp4
Video
English
102.9 MB
4.5
/images/5/4/zayn-like-i-would-1080p-mp4.jpg
Taylor Swift - Out Of The Woods 1080p mp4 download Taylor Swift - Out Of The Woods 1080p mp4
Video
English
86.8 MB
4.3
/images/5/6/taylor-swift-out-of-the-woods-1080p-mp4.jpg
Ariana Grande - Into You 1080p mp4 download Ariana Grande - Into You 1080p mp4
Video
English
70.9 MB
4.2
/images/5/1/ariana-grande-into-you-1080p-mp4-.jpg
Justin Bieber - Sorry 1080p mp4 download Justin Bieber - Sorry 1080p mp4
Video
English
92.1 MB
4.6
/images/5/5/justin-bieber-sorry-1080p-mp4.jpg
Jason Derulo - Naked 1080p mp4 download Jason Derulo - Naked 1080p mp4
Video
English
59.8 MB
4.6
/images/5/7/jason-derulo-naked-1080p-mp4.jpg
Rihanna ft Drake - Work 1080p mp4 download Rihanna ft Drake - Work 1080p mp4
Video
English
158.1 MB
4.7
/images/5/2/rihanna-ft-drake-work-1080p-mp4.jpg