Files 42316
» » Pitbull Ft Ke$ha - Timber 720p Music Video
Language: English
Size: 46.9 MB
Votes: 852
Downloaded: 67
Category: Video
Format: MP3, FLAC
4.3

File list

  • Pitbull Ft. Ke$ha - Timber [Music Video] 720p [Sbyky].MP4 (46.9 MB)

Ke ha - Timber, Pitbull feat. Pitbull ft Ke ha –Timber (Jyvhouse Extended Bass Remix). Pitbull feat Ke ha –Timber (Craig Welsh Pop Bootleg Mix) (Radi. :08.

Ke ha - Timber, Pitbull feat. Ke ha - Timber, Swing Partners - Timber (Instrumental Version), Pitbull feat. Ke ha - Timber и другие популярные треки и рингтоны.

Monday, 21 October 2013.

Bit rate : 9 107 Kbps Width : 1 920 pixels Height : 1 080 pixels Display aspect ratio : 16:9 Frame rate : 2. 00 fps Color space : YUV Chroma subsampling : 4:2:0 Bit depth : 8 bits Scan type : MBAFF

Pitbull - Feel This Moment ft. Christina Aguilera.

Mini SET - ♫ DJ Daniel Avitan - Hits of 2013 Vo. ♫ HD 1080p. Tacabro - Tacata (OFFICIAL MUSIC VIDEO HD). Issam Gaida. Pitbull - Feel This Moment ft.


General
Complete name : Pitbull Ft. Ke$ha - Timber [Music Video] 720p [Sbyky].MP4
Format : MPEG-4
Format profile : Base Media
Codec ID : isom
File size : 46.9 MiB
Duration : 3mn 34s
Overall bit rate mode : Variable
Overall bit rate : 1 836 Kbps
Encoded date : UTC 2013-11-25 04:07:37
Tagged date : UTC 2013-11-25 04:07:37
Video
ID : 1
Format : AVC
Format/Info : Advanced Video Codec
Format profile : [email protected]
Format settings, CABAC : Yes
Format settings, ReFrames : 3 frames
Codec ID : avc1
Codec ID/Info : Advanced Video Coding
Duration : 3mn 33s
Bit rate : 1 580 Kbps
Width : 1 280 pixels
Height : 720 pixels
Display aspect ratio : 16:9
Frame rate mode : Variable
Frame rate : 23.976 fps
Minimum frame rate : 23.974 fps
Maximum frame rate : 4 090.909 fps
Color space : YUV
Chroma subsampling : 4:2:0
Bit depth : 8 bits
Scan type : Progressive
Bits/(Pixel*Frame) : 0.071
Stream size : 40.3 MiB (86%)
Encoded date : UTC 2013-11-25 04:07:37
Tagged date : UTC 2013-11-25 04:07:37
Audio
ID : 2
Format : AAC
Format/Info : Advanced Audio Codec
Format profile : LC
Codec ID : 40
Duration : 3mn 34s
Bit rate mode : Variable
Bit rate : 254 Kbps
Channel(s) : 2 channels
Channel positions : Front: L R
Sampling rate : 44.1 KHz
Compression mode : Lossy
Delay relative to video : 42ms
Stream size : 6.47 MiB (14%)
Encoded date : UTC 2013-11-25 04:07:04
Tagged date : UTC 2013-11-25 04:07:04
Shared By Sbyky

Related music:
Pitbull Ft Ke$ha - Timber 1080p Music Video download Pitbull Ft Ke$ha - Timber 1080p Music Video
Video
English
85.8 MB
4.4
/images/5/7/pitbull-ft-ke24ha-timber-1080p-music-video-.jpg
Eminem Ft Rihanna - The Monster 720p download Eminem Ft Rihanna - The Monster 720p
Video
English
57.4 MB
4.9
/images/5/3/eminem-ft-rihanna-the-monster-720p-.jpg
Madison Beer - Melodies 720p Music Video download Madison Beer - Melodies 720p Music Video
Video
English
65.3 MB
4.7
/images/5/7/madison-beer-melodies-720p-music-video-.jpg
Pitbull - I Know You Want Me 1080p Music Video download Pitbull - I Know You Want Me 1080p Music Video
Video
English
96.3 MB
4.3
/images/5/9/pitbull-i-know-you-want-me-1080p-music-video-.jpg
Ariana Grande Ft Big Sean - Right There 720p Music Video download Ariana Grande Ft Big Sean - Right There 720p Music Video
Video
English
63.4 MB
4.1
/images/5/6/ariana-grande-ft-big-sean-right-there-720p-music-video-.jpg
Maroon 5 Ft Christina Aguilera - Moves Like Jagger 720p Music Video download Maroon 5 Ft Christina Aguilera - Moves Like Jagger 720p Music Video
Video
English
55.2 MB
4.5
/images/5/6/maroon-5-ft-christina-aguilera-moves-like-jagger-720p-music-video-.jpg
Miley Cyrus - Party In The U S A 720p Music Video download Miley Cyrus - Party In The U S A 720p Music Video
Video
English
55.8 MB
4.5
/images/5/6/miley-cyrus-party-in-the-u-s-a-720p-music-video-.jpg
Keyshia Cole - I Choose You 720p Music Video download Keyshia Cole - I Choose You 720p Music Video
Video
English
68.3 MB
4.1
/images/5/5/keyshia-cole-i-choose-you-720p-music-video-.jpg
Little Mix - Little Me 720p Music Video download Little Mix - Little Me 720p Music Video
Video
English
37.9 MB
4.1
/images/5/5/little-mix-little-me-720p-music-video-.jpg