Files 42316
» » Awesome Mora Mahiya - Meet Bros Anjjan, Khushboo Grewal - Calendar Girls - 1080p Full HD - Team truHD HEVC
Language: Hindi
Size: 32.2 MB
Votes: 930
Downloaded: 28
Category: Video
Format: MP3, FLAC
4.9

File list

  • Awesome Mora Mahiya - Meet Bros Anjjan, Khushboo Grewal - Calendar Girls - 1080p Full HD - Team truHD HEVC.mp4 (32.0 MB)
  • Awesome Mora Mahiya VIDEO Song - Meet Bros Anjjan, Khushboo Grewal - Calendar Girls - T-Series.mp4.jpg (210.5 KB)
  • Seeding From HostDzire.txt (0.1 KB)
  • Torrent Downloaded from Glodls.to.txt (0.2 KB)
  • Torrent Downloaded from kat.cr.txt (0.2 KB)

Description: Seeding From High Speed Seedbox. King Regards truHD HEVC Team.

Description: Seeding From High Speed Seedbox. Awesome Mora Mahiya - Meet Bros Anjjan, Khushboo Grewal - Calendar Girls - 1080p Full HD - Team truHD HEVC.

Khushboo grewal lyrics-kumaar music label: t-series . Song- awesome mora mahiya music- meet bros anjjan singer- meet bros anjjan feat. Khushboo grewal lyrics-kumaar music label: t-series. Calendar Girls: Awesome Mora Mahiya FULL VIDEO Song Meet Bros Anjjan, Khushboo Grewal.

Calendar Girls Awesome Mora Mahiya New H. .Baby Doll Full Video Song Ragini MMS 2 - Sunny.9. MB. Pink Lips Full Video Song Sunny Leone Hate S. 6. Beparwah ~ Baby (2015) ~ 720p Rip ~ Video Song.

Awesome Mora Mahiya Full Song with LYRICS - Meet Bros Anjjan, Khushboo Grewal Calendar Girls fun-online.

Awesome Mora Mahiya Full HD Song - Meet Bros Anjjan, Khushboo Grewal - Calendar Girls. Awesome Mora Mahiya VIDEO Song - Meet Bros Anjjan, Khushboo Grewal - Calendar Girls - T-Series. Awesome Mora Mahiya Full Song with LYRICS - Meet Bros Anjjan, Khushboo Grewal Calendar Girls fun-online. Awesome Mora Mahiya VIDEO Song - Meet Bros Anjjan, Khushboo Grewal Calendar Girls T-Series.

Awesome Mora Mahiya - Meet Bros Anjjan, Khushboo Grewal - Calendar Girls - 1080p Full HD - Team truHD HEVC. mp4 3. 5 MB. jpg 211 KB. Seeding From HostDzire. txt 1 KB. Torrent Downloaded from Glodls.

Meet Bros Anjjan, Gippy Grewal, Khushboo Grewal – 04 - Tu Takke. Meet Bros & Khushboo Grewal – Pagalon Sa Naach - DownloadMing. Meet Bros, Arijit Singh, Roach Killa & Khushboo Grewal – Girl I Need You - Индийска. :47. Meet Bros Anjjan – Meri Marzi, Teri Raza. Kanika Kapoor, Meet Bros Anjjan – Chittiyaan Kalaiyaan - WapKing.

to Awesome Mor M hiy - Meet Bros Anjj n, Khushboo Grew l - C lend r Girls - 1080p Full HD - Te m truHD HEVC Music.

info Meet-Bros-Anjjan C Movies. to Awesome Mor M hiy - Meet Bros Anjj n, Khushboo Grew l - C lend r Girls - 1080p Full HD - Te m truHD HEVC Music. com Awesome Mora Mahiya: Meet Bros Anjjan, Khushboo Grewal: Calendar Girls: 1080p Full HD: Team TruHD HEVC Movies. am Awesome Mora Mahiya - Meet Bros Anjjan Khushboo Grewal - Calendar Girls - 1080p Full HD - Team truHD HEVC Movies.

Awesome Mora Mahiya - Meet Bros Anjjan, Khushboo Grewal - Calendar Girls - 1080p Full HD - Team . Get this torrent PLAY/STREAM TORRENT.

Seeding From High Speed Seedbox



Awesome Mora Mahiya - Meet Bros Anjjan, Khushboo Grewal - Calendar Girls - 1080p Full HD - Team truHD HEVC


Source: WEB-DL
Source File Info:
General
Format                                   : MPEG-4
Format profile                           : Base Media
Codec ID                                 : isom
File size                                : 46.4 MiB
Duration                                 : 2mn 9s
Overall bit rate                         : 2 996 Kbps
Writing application                      : Lavf54.29.104
Video
ID                                       : 1
Format                                   : AVC
Format/Info                              : Advanced Video Codec
Format profile                           : [email protected]
Format settings, CABAC                   : Yes
Format settings, ReFrames                : 3 frames
Codec ID                                 : avc1
Codec ID/Info                            : Advanced Video Coding
Duration                                 : 2mn 9s
Bit rate                                 : 2 865 Kbps
Width                                    : 1 920 pixels
Height                                   : 1 080 pixels
Display aspect ratio                     : 16:9
Frame rate mode                          : Constant
Frame rate                               : 25.000 fps
Color space                              : YUV
Chroma subsampling                       : 4:2:0
Bit depth                                : 8 bits
Scan type                                : Progressive
Bits/(Pixel*Frame)                       : 0.055
Stream size                              : 44.4 MiB (96%)
Audio
ID                                       : 2
Format                                   : AAC
Format/Info                              : Advanced Audio Codec
Format profile                           : LC
Codec ID                                 : 40
Duration                                 : 2mn 9s
Bit rate mode                            : Constant
Bit rate                                 : 126 Kbps
Channel(s)                               : 2 channels
Channel positions                        : Front: L R
Sampling rate                            : 44.1 KHz
Compression mode                         : Lossy
Stream size                              : 1.95 MiB (4%)

Encoder: truHD HEVC Encoding Team


Encoded File Info:
General
Format                                   : MPEG-4
Format profile                           : Base Media
Codec ID                                 : iso4
File size                                : 32.0 MiB
Duration                                 : 2mn 10s
Overall bit rate mode                    : Variable
Overall bit rate                         : 2 062 Kbps
Encoded date                             : UTC 2015-08-26 09:29:52
Tagged date                              : UTC 2015-08-26 09:29:52
Video
ID                                       : 1
Format                                   : HEVC
Format/Info                              : High Efficiency Video Coding
Codec ID                                 : hvc1
Codec ID/Info                            : High Efficiency Video Coding
Duration                                 : 2mn 9s
Bit rate                                 : 1 947 Kbps
Maximum bit rate                         : 6 047 Kbps
Width                                    : 1 920 pixels
Height                                   : 1 080 pixels
Display aspect ratio                     : 16:9
Frame rate mode                          : Constant
Frame rate                               : 25.000 fps
Bits/(Pixel*Frame)                       : 0.038
Stream size                              : 30.1 MiB (94%)
Title                                    : Video
Encoded date                             : UTC 2015-08-26 09:29:52
Tagged date                              : UTC 2015-08-26 09:29:55
Audio
ID                                       : 2
Format                                   : AAC
Format/Info                              : Advanced Audio Codec
Format profile                           : LC
Codec ID                                 : 40
Duration                                 : 2mn 10s
Bit rate mode                            : Variable
Bit rate                                 : 112 Kbps
Maximum bit rate                         : 123 Kbps
Channel(s)                               : 2 channels
Channel positions                        : Front: L R
Sampling rate                            : 44.1 KHz
Compression mode                         : Lossy
Stream size                              : 1.74 MiB (5%)
Title                                    :
Encoded date                             : UTC 2015-08-26 08:32:36
Tagged date                              : UTC 2015-08-26 09:29:55
ScreenShots:

Like Us On FB And Request Accepted @ FB Page Link
KickAssTorrents: KAT Profile
GloTorrents: GloTorrent Profile
ThePirateBay: ThePirateBay Profile
Torrents: Profile


Note: All Videos Uploaded By Me Are For Preview Purpose. If You Like IT,GoogleIT And Buy IT - Thanks

King Regards
truHD HEVC Team
Share Among Friends And Relatives:

Related music:
Khoya Khoya 1080p Full HD Song - Hero - Team truHD HEVC download Khoya Khoya 1080p Full HD Song - Hero - Team truHD HEVC
Video
Hindi
28.8 MB
4.5
/images/5/0/khoya-khoya-1080p-full-hd-song-hero-team-truhd-hevc.jpg
Afrojack - SummerThing! ft Mike Taylor Full HD 1080p - truHD HEVC download Afrojack - SummerThing! ft Mike Taylor Full HD 1080p - truHD HEVC
Video
English
62.8 MB
4.2
/images/5/0/afrojack-summerthing21-ft-mike-taylor-full-hd-1080p-truhd-hevc.jpg
Roshan Prince Guzarishaan Gurmeet Singh - Full 1080p HD - Team truHD HEVC Full Video download Roshan Prince Guzarishaan Gurmeet Singh - Full 1080p HD - Team truHD HEVC Full Video
Video
Hindi
69.7 MB
4.4
/images/5/8/roshan-prince-guzarishaan-gurmeet-singh-full-1080p-hd-team-truhd-hevc-full-video.jpg
One Dream - Babbal Rai & Preet Hundal - Full HD 1080p - Team truHD HEVC download One Dream - Babbal Rai & Preet Hundal - Full HD 1080p - Team truHD HEVC
Video
Hindi
49.3 MB
4.5
/images/5/6/one-dream-babbal-rai-26-preet-hundal-full-hd-1080p-team-truhd-hevc.jpg
Gulaabo Video Song From Shaandaar - Full HD 1080p - Team truHD HEVC download Gulaabo Video Song From Shaandaar - Full HD 1080p - Team truHD HEVC
Video
Hindi
48.2 MB
4.8
/images/5/5/gulaabo-video-song-from-shaandaar-c2a0full-hd-1080p-team-truhd-hevc.jpg
Calendar Girls Full Album Mp3 Groo 2015 download Calendar Girls Full Album Mp3 Groo 2015
MP3
Hindi
50.8 MB
4.7
/images/5/1/calendar-girls-full-album-mp3-groo-2015.jpg
Cinema Dekhe Mamma Video Song Singh Is Bliing - Full HD 1080p - Team truHD HEVC download Cinema Dekhe Mamma Video Song Singh Is Bliing - Full HD 1080p - Team truHD HEVC
Video
Hindi
36.8 MB
4.7
/images/5/4/cinema-dekhe-mamma-video-song-singh-is-bliing-full-hd-1080p-team-truhd-hevc.jpg
Sau Aasoon - Katti Batti - Imran Khan & Kangana Ranaut - truHD HEVC download Sau Aasoon - Katti Batti - Imran Khan & Kangana Ranaut - truHD HEVC
Video
Hindi
11.8 MB
4.2
/images/5/6/sau-aasoon-katti-batti-imran-khan-26-kangana-ranaut-truhd-hevc.jpg