Files 42316
» » Smash Hits 5 1080p BluRay x264 DTSHD 5 1 -DDR 2017
Language: Hindi
Size: 15.5 GB
Votes: 172
Downloaded: 115
Category: Video
Format: MP3, FLAC
4.6

File list

Smash Hits 5 (2017) 1080p BluRay x264 DTSHD 5.1 -DDR
  • Smash Hits 5 (2017) 1080p BluRay x264 DTSHD 5.1 -DDR.mkv (15.4 GB)
  • sample-Smash Hits 5 (2017) 1080p BluRay x264 DTSHD 5.1 -DDR.mkv (50.9 MB)
  • A DDR Release !!!.txt (0.3 KB)

Dolby TrueHD . ATMOS. Bit Harvest (Lossless). Dts-hd ma . pcm . AC3 . Dolby 3D Glasses Return Trailer Flat (3D). or . ) dolby tru-hd supports dolby atmos better than dts-hdma. Reply . Alfred January 20, 2017 at 3:20 PM.

Dolby TrueHD . Iso. Dolby 3D Movie Return Trailer Flat (2D). Dolby 3D Movie Return Trailer Flat (3D). Dolby Cinema - Element.

Bollywood romantic song video. February 15, 2017 ·. Smash Hits 5 (2017) 1080p BluRay x264 DTSHD . -DDR torrent. to. Smash+Hits+5+%282017%29+1080p+BluRay+x26.

HQ 1080p Blu-Ray Rip x264. Hindi DTSHD-MA . Audio.

Hindi: DTS-HD Master Audio . Hindi: Dolby Digital . (less). Smash Hits 5 Blu-ray, Forum Discussions. Discs Blu-ray Disc Single disc (1 BD-50). Packaging Slipcover in original pressing. Playback Region free. Smash Hits 5 Blu-ray, News and Updates. No related news posts for Smash Hits 5 Blu-ray yet. Smash Hits 5 (T Series).

Details for this torrent. -DDR.

Опубликовано: 10 сент. Безопасный режим: выкл.

HD - 1080p to 720p High-definition movies delivered right here! (Blu-ray, HD DVD, HDTV, WEB-DL, HQ WEBRip, D-Theater and more!)

HD - 1080p to 720p High-definition movies delivered right here! (Blu-ray, HD DVD, HDTV, WEB-DL, HQ WEBRip, D-Theater and more!) Memberships are opened for a short time. Page 1 of 2. 1. 2. Vengeance A Love Story (2017) BluRay 1080p x264 DTS-HD .

8 GB. A DDR Release !!. xt. 287 B. Torrent downloaded from Desitorrents. Subs: Ger. Dsitorrents. tv: Request for reseed of my Old Releases: HERE.

HD - 1080p to 720p High-definition movies delivered right here! (Blu-ray, HD DVD, HDTV, WEB-DL, HQ WEBRip, D-Theater and more!) Memberships are opened for a short time. Page 2 of 2. < 1.

Anna and the Apocalypse 2017. 8 GB.





HQ 1080p Blu-Ray Rip x264
Hindi DTSHD-MA 5.1 Audio

SCREENSHOTS

SPECS

Source: Blu-ray @ DUS (Thanks CA)
Format : Matroska
File size : 15.4 GiB
Duration : 2 h 23 min
Overall bit rate : 15.4 Mb/s
Video
Format : AVC
Format profile : [email protected]
Bit rate : 10.5 Mb/s
Width : 1 920 pixels
Height : 1 080 pixels
Display aspect ratio : 16:9
Frame rate : 24.000 FPS
Bit depth : 8 bits
Stream size : 10.5 GiB (68%
Color primaries : BT.709
Audio #1
Format : DTSHD-MA 5.1
Bit rate : 4 866 kb/s / 1 509 kb/s
Bit depth : 24 bits
Stream size : 4.04 GiB (25%)
Language : Hindi
Chapters : YES
Menu
00:00:00.000 : ISHQ Mubarak - Tum Bin 2
00:05:05.167 : Wajah Tum Ho
00:07:23.875 : Lo Maan Liya - Raaz Reboot
00:12:15.750 : Rock On Revisited
00:15:20.583 : Jab Tak - MSDhoni The Untold Story
00:19:00.542 : Soch Na Sake - AirLift
00:23:32.500 : Mujhko Barsaat Bana Lo - Junooniyat
00:26:10.500 : Sab Tera - Bhaagi
00:28:56.917 : Salamat - Sarbjit
00:31:04.583 : Bol Do Na Zara - Azhar
00:34:42.417 : High Heels Te Natchche - Ki & Ka
00:37:40.667 : Sau Tarah Ke - Dishoom
00:41:38.500 : Ki Kariye Nachna Aoanda Nahin
00:44:55.958 : O janiya - Force 2
00:47:33.125 : Do Chaar Din
00:51:37.000 : Befikre
00:55:35.833 : Dillagi
00:59:48.208 : GF BF
01:04:08.000 : Main Rahoon Ya Na Rahoon
01:08:48.125 : Dekh Lena - Tum Bin 2
01:12:00.458 : Menu Kehn De - Aap Se Mausiiquii
01:16:08.833 : Wajah Tum Ho - Hate Story 3
01:20:44.375 : Pyar Ki - Housefull 3
01:24:36.375 : Kaun Tujh - M.S.Dhoni
01:28:24.208 : Dharkhaast - Shivaay
01:32:03.000 : Sanam Re
01:36:50.083 : Teen Gawah Hain Isqh Ke - Mirzya - Dare To Love
01:39:59.458 : Tere Bin - Wazir
01:43:19.708 : Rehnuma - Rocky Handsome
01:46:57.292 : Itni Si Baat Hain - Azhar
01:50:27.625 : Gal Ban Gayi
01:54:38.167 : Cham Cham - Baaghi
01:58:38.875 : Jeete Hain Chal - Neerja
02:00:12.958 : Awargi - Love Games
02:05:23.500 : Ijazat - One Night Stand
02:08:00.417 : Rajj Rajj Ke - Akira
02:10:06.500 : Dil Cheez Tujhe Dedi - Airlift
02:13:14.167 : Ji Huzoori - Ki & Ka
02:15:36.458 : Rail Gaddi - Tutak Tutak Tutiya
02:18:12.417 : Main Woh Chaand - Teraa Surroor

SAMPLE Included


A DDR Exclusive Encode


Related music:
Katy Perry Ft Migos - Bon Appétit 1080p Music Video download Katy Perry Ft Migos - Bon Appétit 1080p Music Video
Video
English
99.9 MB
4.7
/images/5/4/katy-perry-ft-migos-bon-appc3a9tit-1080p-music-video-.jpg
Saans Jab tak hai jaan 2012 1080p HD Mys download Saans Jab tak hai jaan 2012 1080p HD Mys
DVD
English
82.7 MB
4.5
/images/5/3/saans-jab-tak-hai-jaan-2012-1080p-hd-mys.jpg
Mike Will Made It ft Miley Cyrus Juicy J 23 1080p HDTV-shadowCopy download Mike Will Made It ft Miley Cyrus Juicy J 23 1080p HDTV-shadowCopy
Video
English
143.1 MB
4.8
/images/5/5/mike-will-made-it-ft-miley-cyrus-juicy-j-23-1080p-hdtv-shadowcopy.jpg
YG Ft DJ Mustard - Pop It, Shake It 1080p Music Video download YG Ft DJ Mustard - Pop It, Shake It 1080p Music Video
Video
English
110.0 MB
4.7
/images/5/9/yg-ft-dj-mustard-pop-it2c-shake-it-1080p-music-video-.jpg
One Direction - Midnight Memories X264 1080p TonyStark download One Direction - Midnight Memories X264 1080p TonyStark
Video
English
101.3 MB
4.4
/images/5/5/one-direction-midnight-memories-x264-1080p-tonystark.jpg