Files 42316
» » Enrique Iglesias Ft Romeo Santos - Loco 720p Music Video
Language: Spanish
Size: 37.7 MB
Votes: 474
Downloaded: 13
Category: Video
Format: MP3, FLAC
4.2

File list

  • Enrique Iglesias Ft. Romeo Santos - Loco [Music Video] 720p [Sbyky].mp4 (37.7 MB)


General
Complete name : Enrique Iglesias Ft. Romeo Santos - Loco [Music Video] 720p [Sbyky].mp4
Format : MPEG-4
Format profile : Base Media / Version 2
Codec ID : mp42
File size : 37.7 MiB
Duration : 4mn 8s
Overall bit rate mode : Variable
Overall bit rate : 1 271 Kbps
Encoded date : UTC 2013-08-23 18:15:13
Tagged date : UTC 2013-08-23 18:15:13
Video
ID : 1
Format : AVC
Format/Info : Advanced Video Codec
Format profile : [email protected]
Format settings, CABAC : Yes
Format settings, ReFrames : 1 frame
Format settings, GOP : M=1, N=60
Codec ID : avc1
Codec ID/Info : Advanced Video Coding
Duration : 4mn 8s
Bit rate : 1 077 Kbps
Maximum bit rate : 3 570 Kbps
Width : 1 280 pixels
Height : 720 pixels
Display aspect ratio : 16:9
Frame rate mode : Constant
Frame rate : 23.976 fps
Color space : YUV
Chroma subsampling : 4:2:0
Bit depth : 8 bits
Scan type : Progressive
Bits/(Pixel*Frame) : 0.049
Stream size : 31.9 MiB (85%)
Tagged date : UTC 2013-08-23 18:15:15
Audio
ID : 2
Format : AAC
Format/Info : Advanced Audio Codec
Format profile : LC
Codec ID : 40
Duration : 4mn 8s
Bit rate mode : Variable
Bit rate : 192 Kbps
Maximum bit rate : 202 Kbps
Channel(s) : 2 channels
Channel positions : Front: L R
Sampling rate : 44.1 KHz
Compression mode : Lossy
Stream size : 5.69 MiB (15%)
Title : IsoMedia File Produced by Google, 5-11-2011
Encoded date : UTC 2013-08-23 18:15:14
Tagged date : UTC 2013-08-23 18:15:15
Shared By Sbyky

Related music:
Enrique Iglesias Ft Sammy Adams - Finally Found You 1080p Music Video download Enrique Iglesias Ft Sammy Adams - Finally Found You 1080p Music Video
Video
English
83.1 MB
4.3
/images/5/6/enrique-iglesias-ft-sammy-adams-finally-found-you-1080p-music-video-.jpg
John Legend - All Of Me 720p Music Video download John Legend - All Of Me 720p Music Video
Video
English
62.7 MB
4.1
/images/5/4/john-legend-all-of-me-720p-music-video-.jpg
Ke$ha - Dirty Love 720p Music Video download Ke$ha - Dirty Love 720p Music Video
Video
English
77.0 MB
4.1
/images/5/7/ke24ha-dirty-love-720p-music-video-.jpg
Enrique Iglesias - Turn The Night Up 1080p Music Video download Enrique Iglesias - Turn The Night Up 1080p Music Video
Video
English
121.1 MB
4.0
/images/5/2/enrique-iglesias-turn-the-night-up-1080p-music-video-.jpg
Little Mix - Little Me 720p Music Video download Little Mix - Little Me 720p Music Video
Video
English
37.9 MB
4.1
/images/5/5/little-mix-little-me-720p-music-video-.jpg
Enrique Iglesias Ft Sammy Adams - Finally Found You 720p Music Video download Enrique Iglesias Ft Sammy Adams - Finally Found You 720p Music Video
Video
English
42.9 MB
4.1
/images/5/6/enrique-iglesias-ft-sammy-adams-finally-found-you-720p-music-video-.jpg