Files 42316
» » Dheere Dheere VIDEO Song 1080p - Yo Yo Honey Singh mp4
Language: Hindi
Size: 147.6 MB
Votes: 256
Downloaded: 85
Category: Video
Format: MP3, FLAC
4.7

File list

  • Dheere Dheere VIDEO Song 1080p - Yo Yo Honey Singh.mp4 (147.6 MB)

Находки в антарктиде шokиpobaли весь мир!

Dheere Dheere Se Meri Zindagi Video Song (OFFICIAL) Hrithik Roshan, Sonam .

All Music Audio books Sound clips FLAC Other Movies Movies DVDR Music videos Movie clips TV shows Handheld HD - Movies HD - TV shows 3D Other Windows Mac UNIX Handheld IOS (iPad/iPhone).

All Music Audio books Sound clips FLAC Other Movies Movies DVDR Music videos Movie clips TV shows Handheld HD - Movies HD - TV shows 3D Other Windows Mac UNIX Handheld IOS (iPad/iPhone) Android Other OS PC Mac PSx XBOX360 Wii Handheld IOS (iPad/iPhone) Android Other Movies Movies DVDR Pictures Games HD - Movies Movie clips Other E-books Comics Pictures Covers.

Dheere Dheere Se Meri Zindagi Video Song (OFFICIAL) Hrithik Roshan, Sonam Kapoor Yo Yo Honey Singh Video, Download format MP4 1080p, MP4 720p, MP4 480p, MP4 360p, MP4 240p, MP4 144p. ly/TammaTammaAgain In Loving Memory of Shri GULSHAN KUMAR, we present to you Bhushan Kumar's "Dheere Dheere Se Meri Zindagi" Song recreated by YO YO HONEY SINGH directed by Ahmed Khan featuring HRITHIK ROSHAN & SONAM KAPOOR exclusively on T-Series. ly/DheereDheere YoYo.

Для запроса TOP VIDEO SONG DHEERE DHEERE SE MERI ZINDAGI YO YO HONEY SINGH HRITHIK ROSHAN SONAM KAPOOR 1080P мы нашли 50 mp3 трека, рекомендуем скачать бесплатно mp3 песню Dheere Dheere Se Meri Zindagi Video Song OFFICIAL Hrithik Roshan.

Для запроса TOP VIDEO SONG DHEERE DHEERE SE MERI ZINDAGI YO YO HONEY SINGH HRITHIK ROSHAN SONAM KAPOOR 1080P мы нашли 50 mp3 трека, рекомендуем скачать бесплатно mp3 песню Dheere Dheere Se Meri Zindagi Video Song OFFICIAL Hrithik Roshan Sonam Kapoor Yo Yo Honey Singh размером . 7 M. .

Bollywood Songs New Indipop Single Songs Bollywood Cover Songs. Ankhon Mein - Vipul Kapoor PC H. p4 317 Hits. Rahman n Sanam n Jonita Gandhi. Yeh Jo Ishq Hai - Mitali Mahant.

New Bollywood Movie Songs 2018 All Bollywood Songs New Indipop Single Songs Bollywood Cover Songs. Free Download Dheere Dheere (Yo Yo Honey Singh). Dheere Dheere (Yo Yo Honey Singh). Home Videos PC HD Video Indian Pop PC HD Video. Home MP3 Songs Mobile Videos Ringtones PC HD Video Games Applications Animations.

SSM presents:
Dheere Dheere VIDEO Song 1080p - Yo Yo Honey Singh.mp4

Dheere Dheere Lyrics

Code:


Format : MPEG-4
Format profile : Base Media
Codec ID : isom
File size : 148 MiB
Duration : 5mn 4s
Overall bit rate : 4 073 Kbps
Writing application : Lavf56.1.100
Video
ID : 1
Format : AVC
Format/Info : Advanced Video Codec
Format profile : [email protected]
Format settings, CABAC : Yes
Format settings, ReFrames : 2 frames
Codec ID : avc1
Codec ID/Info : Advanced Video Coding
Duration : 5mn 3s
Bit rate : 3 942 Kbps
Width : 1 920 pixels
Height : 1 080 pixels
Display aspect ratio : 16:9
Frame rate mode : Constant
Frame rate : 25.000 fps
Color space : YUV
Chroma subsampling : 4:2:0
Bit depth : 8 bits
Scan type : Progressive
Bits/(Pixel*Frame) : 0.076
Stream size : 143 MiB (97%)
Audio
ID : 2
Format : AAC
Format/Info : Advanced Audio Codec
Format profile : LC
Codec ID : 40
Duration : 5mn 4s
Bit rate mode : Constant
Bit rate : 126 Kbps
Channel(s) : 2 channels
Channel positions : Front: L R
Sampling rate : 44.1 KHz
Compression mode : Lossy
Stream size : 4.55 MiB (3%)
Related music:
Meri Zindagi VIDEO Song 1080p - Bhaag Johnny - Rahul Vaidya mp4 download Meri Zindagi VIDEO Song 1080p - Bhaag Johnny - Rahul Vaidya mp4
Video
Hindi
61.1 MB
4.1
/images/5/3/meri-zindagi-video-song-1080p-bhaag-johnny-rahul-vaidya-mp4.jpg
Little Mix - Little Me 1080p Music Video download Little Mix - Little Me 1080p Music Video
Video
English
74.7 MB
4.9
/images/5/1/little-mix-little-me-1080p-music-video-.jpg
Pitbull - I Know You Want Me 1080p Music Video download Pitbull - I Know You Want Me 1080p Music Video
Video
English
96.3 MB
4.3
/images/5/9/pitbull-i-know-you-want-me-1080p-music-video-.jpg
Issey Kehte Hain Hip Hop Full Video Song - Yo Yo Honey Singh - World Music Day HD 1080p download Issey Kehte Hain Hip Hop Full Video Song - Yo Yo Honey Singh - World Music Day HD 1080p
Video
Hindi
61.0 MB
4.3
/images/5/5/issey-kehte-hain-hip-hop-full-video-song-yo-yo-honey-singh-world-music-day-hd-1080p-.jpg
One Direction - You & I 1080p Music Video download One Direction - You & I 1080p Music Video
Video
English
111.1 MB
4.5
/images/5/5/one-direction-you-26-i-1080p-music-video-.jpg
Karmin - I Want It All 1080p Music Video download Karmin - I Want It All 1080p Music Video
Video
English
85.2 MB
4.6
/images/5/4/karmin-i-want-it-all-1080p-music-video-.jpg
YG Ft DJ Mustard - Pop It, Shake It 1080p Music Video download YG Ft DJ Mustard - Pop It, Shake It 1080p Music Video
Video
English
110.0 MB
4.7
/images/5/9/yg-ft-dj-mustard-pop-it2c-shake-it-1080p-music-video-.jpg
Passenger - Let Her Go 1080p Music Video download Passenger - Let Her Go 1080p Music Video
Video
English
86.7 MB
4.2
/images/5/0/passenger-let-her-go-1080p-music-video-.jpg