Files 42316
» » Thomas Rhett - It Goes Like This 1080p Music Video
Language: English
Size: 116.3 MB
Votes: 025
Downloaded: 22
Category: Video
Format: MP3, FLAC
4.0

File list

  • Thomas Rhett - It Goes Like This [Music Video] 1080p [Sbyky].mp4 (116.3 MB)

Music video by Thomas Rhett performing It Goes Like This. 2 Hours of Classic Christmas Music - Top Christmas Songs Of All Time - Продолжительность: 1:29:23 Music Box Recommended for you. 1:29:23. 50+ видео Воспроизвести все Country HotlistYouTube Music.

Music video by Thomas Rhett performing It Goes Like This. C) 2013 The Valory Music C. LLC. .

YouTube Music теперь и на компьютере 50+ видео Воспроизвести все Микс – Thomas Rhett It Goes Like This live.

YouTube Music теперь и на компьютере. Альбомы ваших любимых исполнителей, огромный каталог музыки и многое другое. 50+ видео Воспроизвести все Микс – Thomas Rhett It Goes Like This live Boise Idaho HDYouTube. 50+ видео Воспроизвести все The ThrowdownYouTube Music.

Produced by Michael Knox. Album It Goes Like This. It Goes Like This Lyrics. And it goes like ooh, what I wouldn't do To write my name on your heart, get you wrapped in my arms baby all around you And it goes like hey, girl I'm blown away Yeah it starts with a smile and it ends with an all night long slow kiss Yeah it goes like this. Hey girl, you make me wanna drive you home Get you outta here and get you all alone I don't know what it is about you, baby But I'm all messed up and it might sound crazy But you make me wanna write a song.

Download MP3. Thomas Rhett.


General
Complete name : Thomas Rhett - It Goes Like This [Music Video] 1080p [Sbyky].mp4
Format : MPEG-4
Format profile : Base Media / Version 2
Codec ID : mp42
File size : 116 MiB
Duration : 3mn 14s
Overall bit rate mode : Variable
Overall bit rate : 5 020 Kbps
Encoded date : UTC 2013-06-11 17:24:24
Tagged date : UTC 2013-06-11 17:24:24
Video
ID : 1
Format : AVC
Format/Info : Advanced Video Codec
Format profile : [email protected]
Format settings, CABAC : Yes
Format settings, ReFrames : 1 frame
Codec ID : avc1
Codec ID/Info : Advanced Video Coding
Duration : 3mn 14s
Bit rate : 4 826 Kbps
Maximum bit rate : 13.2 Mbps
Width : 1 920 pixels
Height : 1 080 pixels
Display aspect ratio : 16:9
Frame rate mode : Constant
Frame rate : 23.976 fps
Color space : YUV
Chroma subsampling : 4:2:0
Bit depth : 8 bits
Scan type : Progressive
Bits/(Pixel*Frame) : 0.097
Stream size : 112 MiB (96%)
Tagged date : UTC 2013-06-11 17:24:32
Audio
ID : 2
Format : AAC
Format/Info : Advanced Audio Codec
Format profile : LC
Codec ID : 40
Duration : 3mn 14s
Bit rate mode : Variable
Bit rate : 192 Kbps
Maximum bit rate : 203 Kbps
Channel(s) : 2 channels
Channel positions : Front: L R
Sampling rate : 44.1 KHz
Compression mode : Lossy
Stream size : 4.45 MiB (4%)
Title : IsoMedia File Produced by Google, 5-11-2011
Encoded date : UTC 2013-06-11 17:24:29
Tagged date : UTC 2013-06-11 17:24:32
Shared By Sbyky

Related music:
PSY - Gentleman 1080p Music Video download PSY - Gentleman 1080p Music Video
Video
English
145.3 MB
4.7
/images/5/2/psy-gentleman-1080p-music-video-.jpg
J Cole - Work Out 1080p Music Video download J Cole - Work Out 1080p Music Video
Video
English
153.3 MB
4.1
/images/5/3/j-cole-work-out-1080p-music-video-.jpg
Little Mix - Little Me 1080p Music Video download Little Mix - Little Me 1080p Music Video
Video
English
74.7 MB
4.9
/images/5/1/little-mix-little-me-1080p-music-video-.jpg
INNA - Wow 1080p Music Video download INNA - Wow 1080p Music Video
Video
English
152.3 MB
4.0
/images/noimage.jpg
Wiz Khalifa Ft Akon - Let It Go 1080p Music Video download Wiz Khalifa Ft Akon - Let It Go 1080p Music Video
Video
English
117.5 MB
4.2
/images/5/6/wiz-khalifa-ft-akon-let-it-go-1080p-music-video-.jpg
One Direction - Best Song Ever 1080p Music Video download One Direction - Best Song Ever 1080p Music Video
Video
English
158.9 MB
4.9
/images/5/6/one-direction-best-song-ever-1080p-music-video-.jpg
Stromae - Papaoutai 1080p Music Video download Stromae - Papaoutai 1080p Music Video
Video
French
83.4 MB
4.5
/images/5/3/stromae-papaoutai-1080p-music-video-.jpg
Future - Honest 1080p Music Video download Future - Honest 1080p Music Video
Video
English
100.8 MB
4.3
/images/5/8/future-honest-1080p-music-video-.jpg
Passenger - Let Her Go 1080p Music Video download Passenger - Let Her Go 1080p Music Video
Video
English
86.7 MB
4.2
/images/5/0/passenger-let-her-go-1080p-music-video-.jpg