Files 42316
» » Spiller ft Sopphie Ellis Bextor - Groovejet 1080p HDTV
Language: English
Size: 129.0 MB
Votes: 219
Downloaded: 26
Category: Video
Format: MP3, FLAC
4.1

File list

  • Spiller.ft.Sopphie.Ellis.Bextor-Groovejet(if.this.aint.love).1080p.HDTV.shadowCopy.mp4 (120.9 MB)
  • vlcsnap-2013-12-27-20h14m58s141.png (2.7 MB)
  • vlcsnap-2013-12-27-20h15m40s64.png (2.0 MB)
  • vlcsnap-2013-12-27-20h15m26s179.png (1.8 MB)
  • vlcsnap-2013-12-27-20h15m59s2.png (1.5 MB)
  • Spiller.ft.Sopphie.Ellis.Bextor-Groovejet(if.this.aint.love).1080p.HDTV.shadowCopy.nfo (3.9 KB)

Bextor-Groovejet(i. his. Junior Caldera ft Sophie Ellis-Bextor - Can't Fight This Feeling Music Video.

Bextor-Groovejet(i. Bextor-Groovejet(i.

Выберите имя/название: Spiller: Groovejet (If This Ain't Love). Sophie Ellis-Bextor). Быстрый самолет (перевод Lorely). По популярности: Sia. Sabaton. Подхожу к тебе ближе, It's time that I told you. Самое время, чтобы сказать тебе: Everything's going to be fine.

Виниловые пластинки Sophie Ellis-Bextor, Spiller. Совместное видео диджея Spiller и британской певицы Sophie Ellis-Bextor на песню Groovejet (2000). Sophie Ellis-Bextor – Groovejet. com/watch?v syOK6zmpOe0. nfo 0 MB. 0h14m58s141. png 3 MB. 0h15m26s179.

Letícia Spiller Lua cheia (Participação especial de Letícia Spiller). Andrew Spiller Lamorna. all songs . Other listen.





Spiller.ft.Sopphie.Ellis.Bextor-Groovejet(if.this.aint.love).1080p.HDTV.shadowCopy
Format : MPEG-4
Format profile : Base Media
Codec ID : isom
File size : 121 MiB
Duration : 3mn 37s
Overall bit rate mode : Variable
Overall bit rate : 4 660 Kbps
Writing application : Lavf54.63.104
Video
ID : 1
Format : AVC
Format/Info : Advanced Video Codec
Format profile : [email protected]
Format settings, CABAC : Yes
Format settings, ReFrames : 4 frames
Codec ID : avc1
Codec ID/Info : Advanced Video Coding
Duration : 3mn 37s
Bit rate : 4 528 Kbps
Width : 1 920 pixels
Height : 1 088 pixels
Original height : 1 080 pixels
Display aspect ratio : 16:9
Original display aspect ratio : 16:9
Frame rate mode : Variable
Frame rate : 49.815 fps
Original frame rate : 25.000 fps
Minimum frame rate : 1.220 fps
Maximum frame rate : 50.040 fps
Color space : YUV
Chroma subsampling : 4:2:0
Bit depth : 8 bits
Scan type : Interlaced
Scan order : Top Field First
Bits/(Pixel*Frame) : 0.044
Stream size : 117 MiB (97%)
Audio
ID : 2
Format : AAC
Format/Info : Advanced Audio Codec
Format profile : HE-AAC / LC
Codec ID : 40
Duration : 3mn 37s
Bit rate mode : Variable
Bit rate : 127 Kbps
Maximum bit rate : 128 Kbps
Channel(s) : 2 channels
Channel positions : Front: L R
Sampling rate : 48.0 KHz / 24.0 KHz
Compression mode : Lossy
Stream size : 3.29 MiB (3%)

Related music:
Gorgon City ft Mnek-Ready for your love-HDTV 1080p-shadowCopy download Gorgon City ft Mnek-Ready for your love-HDTV 1080p-shadowCopy
Video
English
110.1 MB
4.2
/images/5/0/gorgon-city-ft-mnek-ready-for-your-love-hdtv-1080p-shadowcopy.jpg
Sevyn Streeter Ft Kid Ink - nEXt 1080p Music Video download Sevyn Streeter Ft Kid Ink - nEXt 1080p Music Video
Video
English
93.7 MB
4.4
/images/5/4/sevyn-streeter-ft-kid-ink-next-1080p-music-video-.jpg
Beyonce-xo HDTV 1080p-sc download Beyonce-xo HDTV 1080p-sc
Video
English
112.3 MB
4.4
/images/5/6/beyonce-xo-hdtv-1080p-sc.jpg
Ed Sheeran - The A Team 1080p HD - shadowCopy download Ed Sheeran - The A Team 1080p HD - shadowCopy
Video
English
150.8 MB
4.8
/images/5/4/ed-sheeran-the-a-team-1080p-hd-shadowcopy.jpg
A Great Big World ft Christina Aguilera-Say Something HDTV 1080p-sc download A Great Big World ft Christina Aguilera-Say Something HDTV 1080p-sc
Video
English
113.0 MB
4.0
/images/5/3/a-great-big-world-ft-christina-aguilera-say-something-hdtv-1080p-sc.jpg
Mike Will Made It ft Miley Cyrus Juicy J 23 1080p HDTV-shadowCopy download Mike Will Made It ft Miley Cyrus Juicy J 23 1080p HDTV-shadowCopy
Video
English
143.1 MB
4.8
/images/5/5/mike-will-made-it-ft-miley-cyrus-juicy-j-23-1080p-hdtv-shadowcopy.jpg
YG Ft DJ Mustard - Pop It, Shake It 1080p Music Video download YG Ft DJ Mustard - Pop It, Shake It 1080p Music Video
Video
English
110.0 MB
4.7
/images/5/9/yg-ft-dj-mustard-pop-it2c-shake-it-1080p-music-video-.jpg
Shakira - Empire 1080p Music Video download Shakira - Empire 1080p Music Video
Video
English
94.2 MB
4.1
/images/5/0/shakira-empire-1080p-music-video-.jpg