Files 42316
» » One Direction - Gotta Be You 1080p Official Music Video
Language: English
Size: 159.5 MB
Votes: 799
Downloaded: 35
Category: Video
Format: MP3, FLAC
4.1

File list

  • File Info.txt (2.9 KB)
  • One Direction - Gotta Be You [Official Music Video].MP4 (159.5 MB)
  • Shared By Sbyky.txt (0.0 KB)
  • Torrent downloaded from Demonoid.me.txt (0.0 KB)

Предложено пользователем SME. One Direction - Gotta Be Yo. Gotta Be You. Исполнитель.

Предложено пользователем SME. One Direction - Gotta Be You. Композиция. SME (от лица компании "Syco Music UK"); BMG Rights Management, CMRRA, BMI - Broadcast Music In. ASCAP, SOLAR Music Rights Management, LatinAutor, Sony ATV Publishing" и другие авторские общества (13).

One Direction - Gotta Be You (Official Video). One Direction One Thing Live Performance 1080p Ft Demi Lovato Video Music Awards 2012 MTV VMA. ONE DIRECTION.

eu/torrent/one+direction+gotta+be+you+official+music+video+1080p+sbyky/ODEwMzM1NA. One+Direction+-+Gotta+Be+You+Official+Music+Video+1080p+Sbyky.

One Direction - This Is Us (Movie Trailer). One Direction - Kiss You (Official). 3. One Direction - What Makes You Beautiful. 4. 107 ნახვა.

Forums Video Mania Music Videos MASTERS & BLU-RAY BLU-RAY & BD RIP . One Direction - Gotta Be You (LPCM-Bluray-1080i). Discussion in 'BLU-RAY & BD RIP' started by DETOX, Sep 25, 2017. Page 1 of 2. 1 2 Next . DETOX Well-Known Member V. I. P. Uploader. Joined: Feb 20, 2014.

Gotta Be You (One Direction song). Gotta Be You" is a song by English-Irish boy band One Direction from their debut studio album, Up All Night (2011). Written by August Rigo and the song's producer, Steve Mac, it was released in the United Kingdom by Syco Music in November 2011, as the album's second single. The lyrical content is characterised by love sentiments.


General
Complete name : Gotta Be You [Official Music Video].MP4
Format : MPEG-4
Format profile : Base Media / Version 2
Codec ID : mp42
File size : 160 MiB
Duration : 3mn 55s
Overall bit rate mode : Variable
Overall bit rate : 5 674 Kbps
Encoded date : UTC 2011-11-07 14:44:08
Tagged date : UTC 2011-11-07 14:44:08
Video
ID : 1
Format : AVC
Format/Info : Advanced Video Codec
Format profile : [email protected]
Format settings, CABAC : Yes
Format settings, ReFrames : 1 frame
Codec ID : avc1
Codec ID/Info : Advanced Video Coding
Duration : 3mn 55s
Bit rate : 5 522 Kbps
Maximum bit rate : 13.0 Mbps
Width : 1 920 pixels
Height : 1 080 pixels
Display aspect ratio : 16:9
Frame rate mode : Variable
Frame rate : 23.976 fps
Minimum frame rate : 23.762 fps
Maximum frame rate : 24.341 fps
Color space : YUV
Chroma subsampling : 4:2:0
Bit depth : 8 bits
Scan type : Progressive
Bits/(Pixel*Frame) : 0.111
Stream size : 155 MiB (97%)
Tagged date : UTC 2011-11-07 14:44:10
Audio
ID : 2
Format : AAC
Format/Info : Advanced Audio Codec
Format profile : LC
Codec ID : 40
Duration : 3mn 55s
Bit rate mode : Variable
Bit rate : 149 Kbps
Maximum bit rate : 169 Kbps
Channel(s) : 2 channels
Channel positions : Front: L R
Sampling rate : 44.1 KHz
Compression mode : Lossy
Stream size : 4.19 MiB (3%)
Title : IsoMedia File Produced by Google, 5-11-2011
Encoded date : UTC 2011-11-07 14:44:10
Tagged date : UTC 2011-11-07 14:44:10

Related music:
Sevyn Streeter Ft Kid Ink - nEXt 1080p Music Video download Sevyn Streeter Ft Kid Ink - nEXt 1080p Music Video
Video
English
93.7 MB
4.4
/images/5/4/sevyn-streeter-ft-kid-ink-next-1080p-music-video-.jpg
J Cole - Work Out 1080p Music Video download J Cole - Work Out 1080p Music Video
Video
English
153.3 MB
4.1
/images/5/3/j-cole-work-out-1080p-music-video-.jpg
Wiz Khalifa Ft Akon - Let It Go 1080p Music Video download Wiz Khalifa Ft Akon - Let It Go 1080p Music Video
Video
English
117.5 MB
4.2
/images/5/6/wiz-khalifa-ft-akon-let-it-go-1080p-music-video-.jpg
One Direction - Best Song Ever 1080p Music Video download One Direction - Best Song Ever 1080p Music Video
Video
English
158.9 MB
4.9
/images/5/6/one-direction-best-song-ever-1080p-music-video-.jpg
LMFAO - Sexy and I Know It 1080p Music Video download LMFAO - Sexy and I Know It 1080p Music Video
Video
English
147.4 MB
4.9
/images/5/6/lmfao-sexy-and-i-know-it-1080p-music-video-.jpg
YG Ft DJ Mustard - Pop It, Shake It 1080p Music Video download YG Ft DJ Mustard - Pop It, Shake It 1080p Music Video
Video
English
110.0 MB
4.7
/images/5/9/yg-ft-dj-mustard-pop-it2c-shake-it-1080p-music-video-.jpg
Shakira - Empire 1080p Music Video download Shakira - Empire 1080p Music Video
Video
English
94.2 MB
4.1
/images/5/0/shakira-empire-1080p-music-video-.jpg
Ik Tu Hi Tu Hi - Mausam 720P HD Video Song 2011 download Ik Tu Hi Tu Hi - Mausam 720P HD Video Song 2011
Video
Hindi
86.3 MB
4.4
/images/5/7/ik-tu-hi-tu-hi-mausam-720p-hd-video-song-2011.jpg
Katy Perry - Last Friday Night 720p T.G.I.F. download Katy Perry - Last Friday Night 720p T.G.I.F.
Video
English
130.6 MB
4.2
/images/5/7/katy-perry-last-friday-night-720p-tgif-.jpg
One Direction - What Makes You Beautiful 720p Music Video download One Direction - What Makes You Beautiful 720p Music Video
Video
English
75.0 MB
4.3
/images/5/2/one-direction-what-makes-you-beautiful-720p-music-video-.jpg