Files 42316
» » Chris Brown - Don't Judge Me x264 VX 1080p
Language: English
Size: 56.8 MB
Votes: 941
Downloaded: 21
Category: Video
Format: MP3, FLAC
4.5

File list

  • Chris Brown - Don't Judge Me (1080p) x264 [VX] [P2PDL].mp4 (53.6 MB)
  • Chris Brown - Don't Judge Me.m4a (3.2 MB)
  • Cover.jpg (59.4 KB)
  • Info.nfo (12.8 KB)
  • Chris Brown - Don't Judge Me (1080p) x264 [VX] [P2PDL].srt (5.8 KB)

Прослушать Скачать 04:04. Don't Judge Me (Instrumental version originally performed by Chris Brown).

Don't Judge Me. Прослушать Скачать 03:59. Прослушать Скачать 04:04. Прослушать Скачать 03:38.

PagesPublic atra caldwellVideos- Please Dont Judge Me! - Chris Brown!♥.

All Eyes On You. Chris Brown. M views · 27 July 2015. PagesPublic atra caldwellVideos- Please Dont Judge Me! - Chris Brown!♥.

Скачать минус песни Don t Judge Me 320kbps

Скачать минус песни Don t Judge Me 320kbps let it be beautiful, oh ohh let it be beautiful. your hearing rumors about me and saw some pictures online sayin they got you so . .

Don't Judge Me (Fuego Extended Club Mix) Lyrics. Don't Judge Me (Isa the Machine Remix) Lyrics. 4. 5.

org Chris Brown - Dont Judge Me {M4A+MP4} (1080p) x264 Video Music videos. Chris Brown - Don't Judge M. 4a3,243 KB. Cover. com Chris Brown - Don't Judge Me (1080p) x264 Music. org Chris Brown - Don't Judge Me {M4A+MP4} (1080p) x264 Movies. You cannot download any of those files from here.

Don't Judge Me" is a song by American recording artist Chris Brown on his fifth studio album, Fortune (2012). It was written by Brown and produced by The Messengers. The song was sent to urban contemporary radio stations in the United States on August 14, 2012 as the fifth and final single from the album. Don't Judge Me" is a midtempo ballad, with lyrics in which Brown asks his lover to forgive him "for his past indiscretions" and "move on with the future.

Don't Judge Me (оригинал Chris Brown). Не осуждай меня (перевод Ruslan Azarov из Керчи). Before it gets beautiful. Please don't judge me. I don't wanna go there. Пожалуйста, не осуждай меня, And I won't judge you.

Cover:
Release Title:Chris Brown - Don't Judge Me
Music video by Chris Brown performing Don't Judge Me. (C) 2012 RCA Records, a division of Sony Music Entertainment.
1080p Full HD MP4 Video
+
96 kbps/VBR M4A Audio
Sing Along!
English subtitles included.

Code:


General
Complete name : Chris Brown - Don't Judge Me (1080p) x264 [VX] [P2PDL].mp4
Format : MPEG-4
File size : 53.6 MiB
Duration : 4mn 51s
Overall bit rate mode : Variable
Overall bit rate : 1 542 Kbps
Recorded date : 2012
Cover : Yes
Video
ID : 1
Format : AVC
Format/Info : Advanced Video Codec
Bit rate mode : Variable
Bit rate : 1 400 Kbps
Width : 1 920 pixels
Height : 1 080 pixels
Display aspect ratio : 16:9
Frame rate mode : Variable
Frame rate : 23.976 fps
Stream size : 49.0 MiB (91%)
Writing library : x264 core 125
Audio
ID : 2
Format : AAC
Format/Info : Advanced Audio Codec
Format profile : LC
Codec ID : 40
Bit rate mode : Variable
Bit rate : 128 Kbps
Channel(s) : 2 channels
Channel positions : Front: L R
Sampling rate : 48.0 KHz
Stream size : 4.44 MiB (8%)
Subtitles : Yes (English)

Screens:


Thumbs:


Code:


Notes:
* Best played on VLC Media Player.
* Install shark007 codecs in case of any kind of problem in playback (For non-VLC Media Player users).
* Alternatively, install Core AVC codecs, the fastest decoder that there is coupled with Community Center Codec Pack and play on Windows Media Player Classic.
* Read NFO
* Help in seeding this torrent as much as you can.
Greets to: srkfan, VYTO, MgB, staff members at ExtraTorrent, TPB, H33T, KAT, , PublicHD, Ahashare,
SilverTorrent, TorrentMafia, P2PDL, and all others
Encoder Notes: Looking For Early Access To Anything You Can Provide DVDScr, R5, DVDRips, BluRay, Direct Audio, Early Music
Releases, Seedboxes, Links, Dedicated Servers anything u can provide, Advance / Promo CDs/DVDs. If You Got anything to
offer contact me at "[email protected]"


Enjoy!

Related music:
Chris Brown Ft Lil Wayne & Tyga - Loyal 1080p download Chris Brown Ft Lil Wayne & Tyga - Loyal 1080p
Video
English
137.0 MB
4.2
/images/5/3/chris-brown-ft-lil-wayne-26-tyga-loyal-1080p-.jpg
Juicy J Ft Chris Brown & Wiz Khalifa - Talkin' Bout 1080p Music Video download Juicy J Ft Chris Brown & Wiz Khalifa - Talkin' Bout 1080p Music Video
Video
English
121.3 MB
4.2
/images/5/9/juicy-j-ft-chris-brown-26-wiz-khalifa-talkin27-bout-1080p-music-video-.jpg
T-Pain feat Chris Brown - Best Love Song 1080p Anky download T-Pain feat Chris Brown - Best Love Song 1080p Anky
Video
English
155.6 MB
4.4
/images/5/6/t-pain-feat-chris-brown-best-love-song-1080p-anky.jpg
Sean Kingston Ft Chris Brown & Wiz Khalifa - Beat It 1080p Music Video download Sean Kingston Ft Chris Brown & Wiz Khalifa - Beat It 1080p Music Video
Video
English
121.2 MB
4.7
/images/5/4/sean-kingston-ft-chris-brown-26-wiz-khalifa-beat-it-1080p-music-video-.jpg
Chris Brown ft Nicki Minaj-Love More -shadowCopy HD.1080p download Chris Brown ft Nicki Minaj-Love More -shadowCopy HD.1080p
Video
English
103.8 MB
4.6
/images/5/7/chris-brown-ft-nicki-minaj-love-more-shadowcopy-hd1080p.jpg
Saans Jab tak hai jaan 2012 1080p HD Mys download Saans Jab tak hai jaan 2012 1080p HD Mys
DVD
English
82.7 MB
4.5
/images/5/3/saans-jab-tak-hai-jaan-2012-1080p-hd-mys.jpg
Wisin & Yandel Ft Chris Brown, T-Pain - Algo Me Gusta De Ti 1080p Music Video download Wisin & Yandel Ft Chris Brown, T-Pain - Algo Me Gusta De Ti 1080p Music Video
Video
English
200.2 MB
4.4
/images/5/7/wisin-26-yandel-ft-chris-brown2c-t-pain-algo-me-gusta-de-ti-1080p-music-video-.jpg
Chris Brown - Don't Wake Me Up 1080p Music Video download Chris Brown - Don't Wake Me Up 1080p Music Video
Video
English
77.3 MB
4.5
/images/5/0/chris-brown-don27t-wake-me-up-1080p-music-video-.jpg
Chris Brown, Tyga - Ayo 1080p download Chris Brown, Tyga - Ayo 1080p
Video
English
176.0 MB
4.6
/images/noimage.jpg