Files 42316
» » Gym Class Heroes Ft Ryan Tedder - The Fighter 1080p Music Video
Language: English
Size: 108.1 MB
Votes: 616
Downloaded: 31
Category: Video
Format: MP3, FLAC
4.2

File list

  • Gym Class Heroes Ft. Ryan Tedder - The Fighter [Music Video] 1080p [Sbyky].mp4 (108.1 MB)

Featuring Ryan Tedder. The music video for The Fighter features American gymnast John Orozco, and includes shots of his Olympic training as well as clips of home video of him competing as a child.

Featuring Ryan Tedder. Produced by Noel Zancanella. Album The Papercut Chronicles II. The Fighter Lyrics. Commercially, The Fighter was a success, reaching the top 40 in at least 6 countries and earning platinum status in the United States. This song was also featured in the season 4 finale of 90210, and the Cathay Pacific Commercial for the 2013 Hong Kong Sevens. The song marks the final single release from Gym Class Heroes.

8 years ago8 years ago. Pop.

The Fighter (Gym Class Heroes feat. Ryan Tedder Tribute) - Monster Music. Открывайте новую музыку каждый день. Лента с персональными рекомендациями и музыкальными новинками, радио, подборки на любой вкус, удобное управление своей коллекцией. Миллионы композиций бесплатно и в хорошем качестве.


General
Complete name : Gym Class Heroes Ft. Ryan Tedder - The Fighter [Music Video] 1080p [Sbyky].mp4
Format : MPEG-4
Format profile : Base Media / Version 2
Codec ID : mp42
File size : 108 MiB
Duration : 3mn 54s
Overall bit rate mode : Variable
Overall bit rate : 3 870 Kbps
Encoded date : UTC 2013-04-11 03:58:05
Tagged date : UTC 2013-04-11 03:58:05
Video
ID : 1
Format : AVC
Format/Info : Advanced Video Codec
Format profile : [email protected]
Format settings, CABAC : Yes
Format settings, ReFrames : 1 frame
Codec ID : avc1
Codec ID/Info : Advanced Video Coding
Duration : 3mn 54s
Bit rate : 3 676 Kbps
Maximum bit rate : 12.5 Mbps
Width : 1 920 pixels
Height : 1 080 pixels
Display aspect ratio : 16:9
Frame rate mode : Constant
Frame rate : 29.970 fps
Color space : YUV
Chroma subsampling : 4:2:0
Bit depth : 8 bits
Scan type : Progressive
Bits/(Pixel*Frame) : 0.059
Stream size : 103 MiB (95%)
Tagged date : UTC 2013-04-11 03:58:35
Audio
ID : 2
Format : AAC
Format/Info : Advanced Audio Codec
Format profile : LC
Codec ID : 40
Duration : 3mn 54s
Bit rate mode : Variable
Bit rate : 192 Kbps
Maximum bit rate : 201 Kbps
Channel(s) : 2 channels
Channel positions : Front: L R
Sampling rate : 44.1 KHz
Compression mode : Lossy
Stream size : 5.36 MiB (5%)
Title : IsoMedia File Produced by Google, 5-11-2011
Encoded date : UTC 2013-04-11 03:58:24
Tagged date : UTC 2013-04-11 03:58:35
Shared By Sbyky

Related music:
PSY - Gentleman 1080p Music Video download PSY - Gentleman 1080p Music Video
Video
English
145.3 MB
4.7
/images/5/2/psy-gentleman-1080p-music-video-.jpg
J Cole - Work Out 1080p Music Video download J Cole - Work Out 1080p Music Video
Video
English
153.3 MB
4.1
/images/5/3/j-cole-work-out-1080p-music-video-.jpg
Little Mix - Little Me 1080p Music Video download Little Mix - Little Me 1080p Music Video
Video
English
74.7 MB
4.9
/images/5/1/little-mix-little-me-1080p-music-video-.jpg
INNA - Wow 1080p Music Video download INNA - Wow 1080p Music Video
Video
English
152.3 MB
4.0
/images/noimage.jpg
Wiz Khalifa Ft Akon - Let It Go 1080p Music Video download Wiz Khalifa Ft Akon - Let It Go 1080p Music Video
Video
English
117.5 MB
4.2
/images/5/6/wiz-khalifa-ft-akon-let-it-go-1080p-music-video-.jpg
One Direction - Best Song Ever 1080p Music Video download One Direction - Best Song Ever 1080p Music Video
Video
English
158.9 MB
4.9
/images/5/6/one-direction-best-song-ever-1080p-music-video-.jpg
Stromae - Papaoutai 1080p Music Video download Stromae - Papaoutai 1080p Music Video
Video
French
83.4 MB
4.5
/images/5/3/stromae-papaoutai-1080p-music-video-.jpg
Future - Honest 1080p Music Video download Future - Honest 1080p Music Video
Video
English
100.8 MB
4.3
/images/5/8/future-honest-1080p-music-video-.jpg
Thomas Rhett - It Goes Like This 1080p Music Video download Thomas Rhett - It Goes Like This 1080p Music Video
Video
English
116.3 MB
4.0
/images/5/2/thomas-rhett-it-goes-like-this-1080p-music-video-.jpg
Passenger - Let Her Go 1080p Music Video download Passenger - Let Her Go 1080p Music Video
Video
English
86.7 MB
4.2
/images/5/0/passenger-let-her-go-1080p-music-video-.jpg