Files 42316
» » Adele - Set Fire To The Rain 1080p Live At The Royal Albert Hall
Language: English
Size: 98.1 MB
Votes: 671
Downloaded: 40
Category: Video
Format: MP3, FLAC
4.7

File list

  • Adele - Set Fire To The Rain [Live At The Royal Albert Hall] 1080p [Sbyky].mp4 (98.1 MB)

50+ видео Воспроизвести все Микс – Adele - Set Fire To The Rain (Live . Love of my life & Bohemian Rhapsody - 1080 HD - Продолжительность: 10:02 Nahuel Coca Recommended for you. 10:02.

50+ видео Воспроизвести все Микс – Adele - Set Fire To The Rain (Live at The Royal Albert Hall)YouTube. Lady Gaga, Bradley Cooper - Shallow (From A Star Is Born/Live From The Oscars) - Продолжительность: 3:58 Lady Gaga Recommended for you. 3:58.

Cause I heard it screaming out your name, your name. I set fire to the rain. And I threw us into the flames. I can't help myself from looking for you. Watched it pour as I touch your face. Well, I felt something died. Well, it burned while I cried. Cause I heard it screaming out your name, your name.

Главная Переводы песен A Adele Set Fire to the Rain. You would always win, always win. Ты всегда выходил победителем. But I set fire to the rain. 6 7 8 9. Set Fire to the Rain (оригинал Adele). Поджечь дождь (перевод Dan UndeaD из Northrend). I let it fall, my heart. Но я подожгла потоки дождя, Watched it pour as I touched your face.


General
Complete name : Adele - Set Fire To The Rain [Live At The Royal Albert Hall] 1080p [Sbyky].mp4
Format : MPEG-4
Format profile : Base Media / Version 2
Codec ID : mp42
File size : 98.1 MiB
Duration : 3mn 58s
Overall bit rate mode : Variable
Overall bit rate : 3 454 Kbps
Encoded date : UTC 2013-04-04 02:08:55
Tagged date : UTC 2013-04-04 02:08:55
Video
ID : 1
Format : AVC
Format/Info : Advanced Video Codec
Format profile : [email protected]
Format settings, CABAC : Yes
Format settings, ReFrames : 1 frame
Codec ID : avc1
Codec ID/Info : Advanced Video Coding
Duration : 3mn 58s
Bit rate : 3 259 Kbps
Maximum bit rate : 6 468 Kbps
Width : 1 920 pixels
Height : 1 080 pixels
Display aspect ratio : 16:9
Frame rate mode : Constant
Frame rate : 29.970 fps
Color space : YUV
Chroma subsampling : 4:2:0
Bit depth : 8 bits
Scan type : Progressive
Bits/(Pixel*Frame) : 0.052
Stream size : 92.6 MiB (94%)
Tagged date : UTC 2013-04-04 02:09:10
Audio
ID : 2
Format : AAC
Format/Info : Advanced Audio Codec
Format profile : LC
Codec ID : 40
Duration : 3mn 58s
Bit rate mode : Variable
Bit rate : 192 Kbps
Maximum bit rate : 202 Kbps
Channel(s) : 2 channels
Channel positions : Front: L R
Sampling rate : 44.1 KHz
Compression mode : Lossy
Stream size : 5.45 MiB (6%)
Title : IsoMedia File Produced by Google, 5-11-2011
Encoded date : UTC 2013-04-04 02:09:07
Tagged date : UTC 2013-04-04 02:09:10
Shared By Sbyky

Related music:
PSY - Gentleman 1080p Music Video download PSY - Gentleman 1080p Music Video
Video
English
145.3 MB
4.7
/images/5/2/psy-gentleman-1080p-music-video-.jpg
J Cole - Work Out 1080p Music Video download J Cole - Work Out 1080p Music Video
Video
English
153.3 MB
4.1
/images/5/3/j-cole-work-out-1080p-music-video-.jpg
Adele - Rolling In The Deep 1080p Music Video download Adele - Rolling In The Deep 1080p Music Video
Video
English
75.7 MB
4.0
/images/5/6/adele-rolling-in-the-deep-1080p-music-video-.jpg
Little Mix - Little Me 1080p Music Video download Little Mix - Little Me 1080p Music Video
Video
English
74.7 MB
4.9
/images/5/1/little-mix-little-me-1080p-music-video-.jpg
INNA - Wow 1080p Music Video download INNA - Wow 1080p Music Video
Video
English
152.3 MB
4.0
/images/noimage.jpg
Wiz Khalifa Ft Akon - Let It Go 1080p Music Video download Wiz Khalifa Ft Akon - Let It Go 1080p Music Video
Video
English
117.5 MB
4.2
/images/5/6/wiz-khalifa-ft-akon-let-it-go-1080p-music-video-.jpg
Stromae - Papaoutai 1080p Music Video download Stromae - Papaoutai 1080p Music Video
Video
French
83.4 MB
4.5
/images/5/3/stromae-papaoutai-1080p-music-video-.jpg
2 Chainz Ft Cap 1 - Where U Been 1080p download 2 Chainz Ft Cap 1 - Where U Been 1080p
Video
English
167.6 MB
4.7
/images/5/5/2-chainz-ft-cap-1-where-u-been-1080p-.jpg