Files 42316
» » Zero Hour Mashup 2013 Full Song - Best Of Bollywood -
Language: Hindi
Size: 60.6 MB
Votes: 920
Downloaded: 35
Category: Video
Format: MP3, FLAC
4.0

File list

  • Zero Hour Mashup 2013 Full Song - Best Of Bollywood -{HKRG}.mp4 (60.6 MB)
  • Torrent Seeded by www.seedmybox.com.txt (0.2 KB)
  • HKRG.txt (0.1 KB)

We bring to you the most rocking mashup of 2013 "ZERO HOUR MASHUP 2013" created by Kiran Kamath Zero Hour.

See actions taken by the people who manage and post content. Page created - December 29, 2013. We bring to you the most rocking mashup of 2013 "ZERO HOUR MASHUP 2013" created by Kiran Kamath Zero Hour Mashup 2013 Full Song - Best Of Bollywood updated their cover photo.

Video contains prohibited content. Video is violating privacy. Video contains repulsive violation Video contains sexual content Video is pending for moderation. Video contains spam Video has disturbing content.

Original - T series mashup. Current track: The Ultimate Party Starter Bollywood MixtapeThe Ultimate Party Starter Bollywood Mixtape. Drop your files here.

Zero Hour Mashup Created By - DJ Kiran Kamath These tracks made you to dance, to love, to groove with their tunes Presenting Valentine Mashup for all music lovers. Enjoy best of bollywood romantic songs at once.

Zero Hour Mashup Created By - DJ Kiran Kamath These tracks made you to dance, to love, to groove with their tunes. Now its time to enjoy all of these tracks at once. Just for our fans, we are coming with best foot tapping bollywood tracks to make you party harder!! T-Series Music. Valentine Mashup Full Song Presenting Valentine Mashup for all music lovers. The Tapori Mashup Full Song Best Bollywood Mashup T-Series. More Fun Bollywood. We like to present the Tapori side of Bollywood's top chartbusters.





Complete name : Zero Hour Mashup 2013 Full Song - Best Of Bollywood -{HKRG}.mp4
Format : MPEG-4
Format profile : Base Media
Codec ID : isom
File size : 60.6 MiB
Duration : 4mn 41s
Overall bit rate mode : Variable
Overall bit rate : 1 808 Kbps
Encoded date : UTC 2014-01-03 17:04:33
Tagged date : UTC 2014-01-03 17:04:33


Video

ID : 1
Format : MPEG-4 Visual
Format profile : Advanced [email protected]
Format settings, BVOP : Yes
Format settings, QPel : No
Format settings, GMC : No warppoints
Format settings, Matrix : Default (H.263)
Codec ID : 20
Duration : 4mn 40s
Bit rate mode : Variable
Bit rate : 1 698 Kbps
Maximum bit rate : 4 122 Kbps
Width : 1 280 pixels
Height : 528 pixels
Display aspect ratio : 2.40:1
Frame rate mode : Constant
Frame rate : 25.000 fps
Color space : YUV
Chroma subsampling : 4:2:0
Bit depth : 8 bits
Scan type : Progressive
Compression mode : Lossy
Bits/(Pixel*Frame) : 0.101
Stream size : 56.9 MiB (94%)
Title : HKRG
Writing library : XviD 1.2.1 (UTC 2008-12-04)
Encoded date : UTC 2014-01-03 17:04:33
Tagged date : UTC 2014-01-03 17:04:40


Audio

ID : 2
Format : MPEG Audio
Format version : Version 1
Format profile : Layer 3
Mode : Joint stereo
Mode extension : MS Stereo
Codec ID : 6B
Duration : 4mn 41s
Bit rate mode : Variable
Bit rate : 112 Kbps
Maximum bit rate : 116 Kbps
Channel(s) : 2 channels
Sampling rate : 44.1 KHz
Compression mode : Lossy
Stream size : 3.59 MiB (6%)
Title : HKRG
Writing library : LAME3.99r
Encoding settings : -m j -V 4 -q 2 -lowpass 15.6 --abr 112
Language : Hindi
Encoded date : UTC 2014-01-03 17:04:40
Tagged date : UTC 2014-01-03 17:04:40








Related music:
Sevyn Streeter Ft Kid Ink - nEXt 1080p Music Video download Sevyn Streeter Ft Kid Ink - nEXt 1080p Music Video
Video
English
93.7 MB
4.4
/images/5/4/sevyn-streeter-ft-kid-ink-next-1080p-music-video-.jpg
Fall Out Boy - Where Did The Party Go 720p Music Video download Fall Out Boy - Where Did The Party Go 720p Music Video
Video
English
46.7 MB
4.9
/images/5/7/fall-out-boy-where-did-the-party-go-720p-music-video-.jpg
Little Mix - Little Me 1080p Music Video download Little Mix - Little Me 1080p Music Video
Video
English
74.7 MB
4.9
/images/5/1/little-mix-little-me-1080p-music-video-.jpg
Hey Rascals - Tittle Song From Rascals download Hey Rascals - Tittle Song From Rascals
Video
Hindi
92.2 MB
4.2
/images/5/2/hey-rascals-tittle-song-from-rascals.jpg
John Legend - All Of Me 720p Music Video download John Legend - All Of Me 720p Music Video
Video
English
62.7 MB
4.1
/images/5/4/john-legend-all-of-me-720p-music-video-.jpg
Supertramp - Paris '79 MP4, AAC, 5.1 download Supertramp - Paris '79 MP4, AAC, 5.1
Video
English
4.6 GB
4.0
/images/5/1/supertramp-paris-2779-mp42c-aac2c-51.jpg
YG Ft DJ Mustard - Pop It, Shake It 1080p Music Video download YG Ft DJ Mustard - Pop It, Shake It 1080p Music Video
Video
English
110.0 MB
4.7
/images/5/9/yg-ft-dj-mustard-pop-it2c-shake-it-1080p-music-video-.jpg
Shakira - Empire 1080p Music Video download Shakira - Empire 1080p Music Video
Video
English
94.2 MB
4.1
/images/5/0/shakira-empire-1080p-music-video-.jpg
50 Cent Ft Kidd Kidd - Everytime I Come Around 720p download 50 Cent Ft Kidd Kidd - Everytime I Come Around 720p
Video
English
51.9 MB
4.9
/images/5/0/50-cent-ft-kidd-kidd-everytime-i-come-around-720p-.jpg
Little Mix - Little Me 720p Music Video download Little Mix - Little Me 720p Music Video
Video
English
37.9 MB
4.1
/images/5/5/little-mix-little-me-720p-music-video-.jpg