Files 42316
» » Fall Out Boy Ft Courtney Love - Rat A Tat 1080p Music Video
Language: English
Size: 127.4 MB
Votes: 775
Downloaded: 20
Category: Video
Format: MP3, FLAC
4.2

File list

  • Fall Out Boy Ft. Courtney Love - Rat A Tat [Music Video] 1080p [Sbyky].mp4 (127.4 MB)

Группа Fall Out Boy и Courtney Love в совместном видео на песню Rat A Tat (2014).

Группа Fall Out Boy и Courtney Love в совместном видео на песню Rat A Tat (2014). 2014Написано вRockМетки: Courtney Love, Fall Out Boy 1 244. Навигация по записям. Предыдущая запись Предыдущая запись: Lily Allen – Our Time. Следующая запись Следующая запись: DJ Cassidy feat. Robin Thicke, Jessie J – Calling All Hearts.

Courtney Love скачать в mp3 на телефон или слушайте песню Fall Out Boy - The Carpal Tunnel Of Love, Fall Out Boy - Love, Sex, Death, Fall Out Boy - The Carpal Tunnel Of Love, Fall Out Boy - Love Will Tear Us Apart, Fall Out Boy feat.

Fall Out Boy. Alternative. More By Fall Out Boy. 2014 The Island Def Jam Music Group. See All. America's Suitehearts (Exclusive Video Album). I Don't Care (Exclusive Video Album).

General Complete name : Fall Out Boy F. Video ID : 1 Format : AVC Format/Info : Advanced Video Codec Format profile : Format settings, CABAC : Yes Format settings, ReFrames : 3 frames Codec ID : avc1 Codec ID/Info : Advanced Video Coding Duration : 4mn 42s Duration LastFrame : -41ms Bit rate : 3 660 Kbps Width : 1 920 pixels Height : 1 080 pixels Display aspect ratio : 16:9 Frame rate mode

Artist: Fall Out Boy. Album: Save Rock and Roll, 2013

Artist: Fall Out Boy. Album: Save Rock and Roll, 2013. Whatever notoriety Fall Out Boy used to have prevents me from having the ability to start over from the bottom again.

Fall Out Boy - Rat a Tat (feat. Director:DONALD/ZAEH. views 79. Repetition on the radio 0. play. Fall Out Boy Rat a Tat (feat. Fall Out Boy - Centuries. Fall Out Boy - Uma Thurman.


General
Complete name : Fall Out Boy Ft. Courtney Love - Rat A Tat [Music Video] 1080p [Sbyky].mp4
Format : MPEG-4
Format profile : Base Media
Codec ID : isom
File size : 127 MiB
Duration : 4mn 42s
Overall bit rate mode : Variable
Overall bit rate : 3 788 Kbps
Encoded date : UTC 2014-03-09 22:44:52
Tagged date : UTC 2014-03-09 22:44:52
Video
ID : 1
Format : AVC
Format/Info : Advanced Video Codec
Format profile : [email protected]
Format settings, CABAC : Yes
Format settings, ReFrames : 3 frames
Codec ID : avc1
Codec ID/Info : Advanced Video Coding
Duration : 4mn 42s
Duration_LastFrame : -41ms
Bit rate : 3 660 Kbps
Width : 1 920 pixels
Height : 1 080 pixels
Display aspect ratio : 16:9
Frame rate mode : Constant
Frame rate : 23.976 fps
Color space : YUV
Chroma subsampling : 4:2:0
Bit depth : 8 bits
Scan type : Progressive
Bits/(Pixel*Frame) : 0.074
Stream size : 123 MiB (97%)
Encoded date : UTC 2014-03-09 22:44:52
Tagged date : UTC 2014-03-09 22:44:52
Audio
ID : 2
Format : AAC
Format/Info : Advanced Audio Codec
Format profile : LC
Codec ID : 40
Duration : 4mn 42s
Bit rate mode : Variable
Bit rate : 126 Kbps
Channel(s) : 2 channels
Channel positions : Front: L R
Sampling rate : 44.1 KHz
Compression mode : Lossy
Stream size : 4.22 MiB (3%)
Encoded date : UTC 2014-03-09 22:38:17
Tagged date : UTC 2014-03-09 22:38:17
Shared By Sbyky

Related music:
Justin Timberlake - Not A Bad Thing 1080p Music Video download Justin Timberlake - Not A Bad Thing 1080p Music Video
Video
English
111.7 MB
4.3
/images/5/7/justin-timberlake-not-a-bad-thing-1080p-music-video-.jpg
Daddy Yankee - La Nueva Y La Ex 1080p Music Video download Daddy Yankee - La Nueva Y La Ex 1080p Music Video
Album
Spanish
63.0 MB
4.8
/images/5/7/daddy-yankee-la-nueva-y-la-ex-1080p-music-video-.jpg
Sevyn Streeter Ft Kid Ink - nEXt 1080p Music Video download Sevyn Streeter Ft Kid Ink - nEXt 1080p Music Video
Video
English
93.7 MB
4.4
/images/5/4/sevyn-streeter-ft-kid-ink-next-1080p-music-video-.jpg
Ashanti Ft Rick Ross - I Got It 1080p Music Video download Ashanti Ft Rick Ross - I Got It 1080p Music Video
Video
English
75.1 MB
4.1
/images/5/6/ashanti-ft-rick-ross-i-got-it-1080p-music-video-.jpg
One Direction - You & I 1080p Music Video download One Direction - You & I 1080p Music Video
Video
English
111.1 MB
4.5
/images/5/5/one-direction-you-26-i-1080p-music-video-.jpg
Karmin - I Want It All 1080p Music Video download Karmin - I Want It All 1080p Music Video
Video
English
85.2 MB
4.6
/images/5/4/karmin-i-want-it-all-1080p-music-video-.jpg
The Pretty Reckless - Heaven Knows 1080p Music Video download The Pretty Reckless - Heaven Knows 1080p Music Video
Video
English
53.7 MB
4.2
/images/5/5/the-pretty-reckless-heaven-knows-1080p-music-video-.jpg
Fall Out Boy Ft Courtney Love - Rat A Tat 720p Music Video download Fall Out Boy Ft Courtney Love - Rat A Tat 720p Music Video
Video
English
61.3 MB
4.2
/images/5/2/fall-out-boy-ft-courtney-love-rat-a-tat-720p-music-video-.jpg
Shakira - Empire 1080p Music Video download Shakira - Empire 1080p Music Video
Video
English
94.2 MB
4.1
/images/5/0/shakira-empire-1080p-music-video-.jpg
Alizée - Blonde 1080p Music Video download Alizée - Blonde 1080p Music Video
Video
French
86.3 MB
4.3
/images/5/6/alizc3a9e-blonde-1080p-music-video-.jpg