Files 42316
» » A$AP Rocky - Goldie 720p
Language: English
Size: 39.1 MB
Votes: 084
Downloaded: 23
Category: Video
Format: MP3, FLAC
4.8

File list

  • A$AP Rocky - Goldie [Explicit] 720p [Sbyky].MP4 (39.1 MB)

Aha, aha I said it must be 'cause a nigga got dough Extraordinary swag and a mouth full of gold Hoes at my shows they be strippin' off they clothes And them college girls write a nigga name on they toes Niggas talk shit 'til they get lockjaw Chrome to ya dome 'til ya get glockjaw Party like a cowboy or a.

Для вас мы собрали всё самое лучшее.

The Edge Of Africa Vol, 8. сборник.

по названию по исполнителю. A AP Rocky – Goldie (BEARSOHMY Booty Mix) v. om/cr7. A AP Rocky – Goldie v. om/hip hap instrumentals.

I said it must be cause a nigga got dough Extraordinary swag and a mouth full of gold Hoes at my shows they be stripping off they clothes And them college girls write a nigga name on they toes. Niggas talk shit 'til they get lockjaw Chrome to ya dome 'til ya get glockjaw Party like a cowboy or a rockstar Everybody play the tough guy 'til shit pop off.


General
Complete name : A$AP Rocky - Goldie [Explicit] 720p [Sbyky].MP4
Format : MPEG-4
Format profile : Base Media
Codec ID : isom
File size : 39.1 MiB
Duration : 3mn 15s
Overall bit rate mode : Variable
Overall bit rate : 1 680 Kbps
Encoded date : UTC 2013-12-03 05:05:31
Tagged date : UTC 2013-12-03 05:05:31
Video
ID : 1
Format : AVC
Format/Info : Advanced Video Codec
Format profile : [email protected]
Format settings, CABAC : Yes
Format settings, ReFrames : 3 frames
Codec ID : avc1
Codec ID/Info : Advanced Video Coding
Duration : 3mn 15s
Bit rate : 1 552 Kbps
Width : 1 280 pixels
Height : 720 pixels
Display aspect ratio : 16:9
Frame rate mode : Constant
Frame rate : 23.976 fps
Color space : YUV
Chroma subsampling : 4:2:0
Bit depth : 8 bits
Scan type : Progressive
Bits/(Pixel*Frame) : 0.070
Stream size : 36.1 MiB (92%)
Encoded date : UTC 2013-12-03 05:05:31
Tagged date : UTC 2013-12-03 05:05:31
Audio
ID : 2
Format : AAC
Format/Info : Advanced Audio Codec
Format profile : LC
Codec ID : 40
Duration : 3mn 15s
Bit rate mode : Variable
Bit rate : 126 Kbps
Channel(s) : 2 channels
Channel positions : Front: L R
Sampling rate : 44.1 KHz
Compression mode : Lossy
Stream size : 2.92 MiB (7%)
Encoded date : UTC 2013-12-03 05:04:29
Tagged date : UTC 2013-12-03 05:04:29
Shared By Sbyky

Related music:
Eminem Ft Rihanna - The Monster 720p download Eminem Ft Rihanna - The Monster 720p
Video
English
57.4 MB
4.9
/images/5/3/eminem-ft-rihanna-the-monster-720p-.jpg
The Janoskians - Best Friends 720p download The Janoskians - Best Friends 720p
Video
English
57.2 MB
4.5
/images/5/1/the-janoskians-best-friends-720p-.jpg
Britney Spears - Ooh La La 720p Music Video download Britney Spears - Ooh La La 720p Music Video
Video
English
66.7 MB
4.6
/images/5/2/britney-spears-ooh-la-la-720p-music-video-.jpg
Fall Out Boy - The Phoenix 720p Music Video download Fall Out Boy - The Phoenix 720p Music Video
Video
English
40.1 MB
4.1
/images/5/4/fall-out-boy-the-phoenix-720p-music-video-.jpg
A$AP Rocky - Goldie 1080p download A$AP Rocky - Goldie 1080p
Video
English
76.4 MB
4.3
/images/5/1/a24ap-rocky-goldie-1080p-.jpg
A$AP Rocky - Fashion Killa 720p download A$AP Rocky - Fashion Killa 720p
Video
English
53.3 MB
4.8
/images/5/9/a24ap-rocky-fashion-killa-720p-.jpg
Beyoncé - XO 720p Music Video download Beyoncé - XO 720p Music Video
Video
English
58.3 MB
4.2
/images/5/7/beyoncc3a9-xo-720p-music-video-.jpg
Jessie J - Thunder 720p Music Video download Jessie J - Thunder 720p Music Video
Video
English
33.5 MB
4.4
/images/5/2/jessie-j-thunder-720p-music-video-.jpg
Little Mix - Little Me 720p Music Video download Little Mix - Little Me 720p Music Video
Video
English
37.9 MB
4.1
/images/5/5/little-mix-little-me-720p-music-video-.jpg