Files 42316
» » Chris Brown ft Nicki Minaj-Love More -shadowCopy SD.480p
Language: English
Size: 28.6 MB
Votes: 684
Downloaded: 24
Category: Video
Format: MP3, FLAC
4.9

File list

  • Chris.Brown.ft.Nicki.Minaj-Love.More.[SD.480p]-shadowCopy.mp4 (28.6 MB)
  • Chris.Brown.ft.Nicki.Minaj-Love.More.[SD.480p]-shadowCopy.nfo (3.6 KB)

Video ID : 1 Format : AVC Format/Info : Advanced Video Codec Format profile :.

Featuring Nicki Minaj

Featuring Nicki Minaj. Produced by Freshm3n III. Album X. Love More Lyrics. Til we get it I'ma get it 'Til we get it 'Til we get it I'ma get it 'Til we get it. You say all you need is consistent love When I try I swear it’s never enough, I messed up Maybe this thing here just ain’t meant for us Baby, you let go and I pull you back, I let go, you ain't having that

Nicki Minaj) Love More (In the Style of Chris Brown feat. Pop beatz - Love More Love More - Tribute to Chris Brown and Nicki Minaj, 2013 03:07.

Nicki Minaj) Love More (In the Style of Chris Brown feat. Nicki Minaj), 2013 03:09. La-Le-Lu - Love More Love More, 2013 03:10. Ameritz Top Tracks - Love More (In the Style of Chris Brown and Nicki Minaj) Love More (In the Style of Chris Brown and Nicki Minaj) - Single, 2013 03:07. Chart stormers - Love More Love More - Tribute to Chris Brown and Nicki Minaj, 2013 03:07.

I didn't understand that I could sing until I was like 11 or 12. My mom heard me singing around the house and she said, What are you doing?

I didn't understand that I could sing until I was like 11 or 12. My mom heard me singing around the house and she said, What are you doing?

Download MP3. Chris Brown feat.

Download MP3.

Nicki Minaj) (Dirty). TOP djframoc 0 40 402. KEY: Db.

Оригинальный текст и перевод песни Love Me – Nicki Minaj на русский язык. Переводы слов любой песни на иностранном языке на русский язык на Яндекс. Baby, baby, baby if you let me I could make you love me I could be Trinity you could be Neo I could be the mistress you the CEO Keep on the' the leelow in the Matrix They be on that fake shit, they be on that spaceship like Like love me honey all them other girls bummy I'm the young money.

March 7, 2019, 9:32 . March 7, 2019, 10:35 . nfo . KB. Related Resources. Chris Brown Feat Nicki Minaj - Love More. mp3 . MB. Chris Brown Ft.



Chris.Brown.ft.Nicki.Minaj-Love.More.[SD.480p]-shadowCopy
Format : MPEG-4
Format profile : Base Media
Codec ID : isom
File size : 28.6 MiB
Duration : 3mn 3s
Overall bit rate : 1 310 Kbps
Writing application : Lavf54.63.104
Video
ID : 1
Format : AVC
Format/Info : Advanced Video Codec
Format profile : [email protected]
Format settings, CABAC : Yes
Format settings, ReFrames : 4 frames
Codec ID : avc1
Codec ID/Info : Advanced Video Coding
Duration : 3mn 3s
Bit rate : 1 145 Kbps
Width : 720 pixels
Height : 408 pixels
Display aspect ratio : 16:9
Frame rate mode : Constant
Frame rate : 23.976 fps
Color space : YUV
Chroma subsampling : 4:2:0
Bit depth : 8 bits
Scan type : Progressive
Bits/(Pixel*Frame) : 0.163
Stream size : 25.0 MiB (88%)
Writing library : x264 core 123 r2189 35cf912
Encoding settings : cabac=1 / ref=3 / deblock=1:0:0 / analyse=0x3:0x133 / me=hex / subme=7 / psy=1 / psy_rd=1.00:0.00 / mixed_ref=1 / me_range=16 / chroma_me=1 / trellis=1 / 8x8dct=1 / cqm=0 / deadzone=21,11 / fast_pskip=1 / chroma_qp_offset=-2 / threads=4 / sliced_threads=0 / nr=0 / decimate=1 / interlaced=0 / bluray_compat=0 / constrained_intra=0 / bframes=3 / b_pyramid=2 / b_adapt=1 / b_bias=0 / direct=1 / weightb=1 / open_gop=0 / weightp=2 / keyint=250 / keyint_min=25 / scenecut=40 / intra_refresh=0 / rc_lookahead=40 / rc=2pass / mbtree=1 / bitrate=1145 / ratetol=1.0 / qcomp=0.60 / qpmin=10 / qpmax=51 / qpstep=4 / cplxblur=20.0 / qblur=0.5 / ip_ratio=1.40 / aq=1:1.00
Audio
ID : 2
Format : AAC
Format/Info : Advanced Audio Codec
Format profile : LC
Codec ID : 40
Duration : 3mn 3s
Bit rate mode : Constant
Bit rate : 156 Kbps
Channel(s) : 2 channels
Channel positions : Front: L R
Sampling rate : 48.0 KHz
Compression mode : Lossy
Stream size : 3.41 MiB (12%)
Language : unk

Related music:
David Guetta ft Akon-Sexy Chick HDTV 1080p-shadowCopy download David Guetta ft Akon-Sexy Chick HDTV 1080p-shadowCopy
Video
English
113.7 MB
4.4
/images/5/5/david-guetta-ft-akon-sexy-chick-hdtv-1080p-shadowcopy.jpg
Gorgon City ft Mnek-Ready for your love-HDTV 1080p-shadowCopy download Gorgon City ft Mnek-Ready for your love-HDTV 1080p-shadowCopy
Video
English
110.1 MB
4.2
/images/5/0/gorgon-city-ft-mnek-ready-for-your-love-hdtv-1080p-shadowcopy.jpg
Beyonce-xo HDTV 1080p-sc download Beyonce-xo HDTV 1080p-sc
Video
English
112.3 MB
4.4
/images/5/6/beyonce-xo-hdtv-1080p-sc.jpg
Chris Brown ft Nicki Minaj-Love More -shadowCopy HD.1080p download Chris Brown ft Nicki Minaj-Love More -shadowCopy HD.1080p
Video
English
103.8 MB
4.6
/images/5/7/chris-brown-ft-nicki-minaj-love-more-shadowcopy-hd1080p.jpg
Selena Gomez-Slow Down HDTV 480p-shadowCopy download Selena Gomez-Slow Down HDTV 480p-shadowCopy
Video
English
34.0 MB
4.1
/images/5/1/selena-gomez-slow-down-hdtv-480p-shadowcopy.jpg
Calvin Harris ft Ellie Goulding-I Need Your Love HDTV 480p-shadowCopy download Calvin Harris ft Ellie Goulding-I Need Your Love HDTV 480p-shadowCopy
Video
English
30.5 MB
4.7
/images/5/6/calvin-harris-ft-ellie-goulding-i-need-your-love-hdtv-480p-shadowcopy.jpg
David Guetta ft Akon-Sexy Chick HDTV 480p-shadowCopy download David Guetta ft Akon-Sexy Chick HDTV 480p-shadowCopy
Video
English
34.0 MB
4.4
/images/5/0/david-guetta-ft-akon-sexy-chick-hdtv-480p-shadowcopy.jpg