Files 42316
» » Calvin Harris Ft Florence Welch - Sweet Nothing 720p Music Video
Language: English
Size: 45.0 MB
Votes: 312
Downloaded: 11
Category: Video
Format: MP3, FLAC
4.8

File list

  • Calvin Harris Ft. Florence Welch - Sweet Nothing [Music Video] 720p [Sbyky].mp4 (45.0 MB)

Calvin Harris - Sweet Nothing (Official Video) ft. Florence Welch.

Calvin Harris - Sweet Nothing (Official Video) ft. Sweet Nothing (Tiësto Remix).

Перевод текста песни Sweet Nothing исполнителя (группы) Calvin Harris. Романтическая чепуха (перевод Val). You took my heart and you had it in your mouth.

Calvin Harris ft. Florence Welch - Sweet Nothing скачать mp3 в хорошем качестве, либо слушайте песню Calvin Harris feat

Calvin Harris ft. Florence Welch - Sweet Nothing скачать mp3 в хорошем качестве, либо слушайте песню Calvin Harris feat.

Florence Welch –Sweet Nothing ( s Performed by Calvin Harri. Florence Welch –Sweet Nothing d&g remix dj pablo rework. :04. Calvin Harris feat Florence Welch –Sweet Nothing (Qulinez Remix). Calvin Harris & Florence Welch –Sweet Nothing(Tiesto Remix). Harris –Welch-Spectrum. Calvin Harris & Florence Welch –Sweet Nothing (Dirtyloud Remix).

Открывайте новую музыку каждый день. Лента с персональными рекомендациями и музыкальными новинками, радио, подборки на любой вкус, удобное управление своей коллекцией. Миллионы композиций бесплатно и в хорошем качестве.


General
Complete name : Calvin Harris Ft. Florence Welch - Sweet Nothing [Music Video] 720p [Sbyky].mp4
Format : MPEG-4
Format profile : Base Media / Version 2
Codec ID : mp42
File size : 45.0 MiB
Duration : 4mn 28s
Overall bit rate mode : Variable
Overall bit rate : 1 404 Kbps
Encoded date : UTC 2013-04-08 02:56:10
Tagged date : UTC 2013-04-08 02:56:10
Video
ID : 1
Format : AVC
Format/Info : Advanced Video Codec
Format profile : [email protected]
Format settings, CABAC : Yes
Format settings, ReFrames : 1 frame
Format settings, GOP : M=1, N=60
Codec ID : avc1
Codec ID/Info : Advanced Video Coding
Duration : 4mn 28s
Bit rate : 1 210 Kbps
Maximum bit rate : 3 978 Kbps
Width : 1 280 pixels
Height : 720 pixels
Display aspect ratio : 16:9
Frame rate mode : Constant
Frame rate : 25.000 fps
Color space : YUV
Chroma subsampling : 4:2:0
Bit depth : 8 bits
Scan type : Progressive
Bits/(Pixel*Frame) : 0.053
Stream size : 38.8 MiB (86%)
Tagged date : UTC 2013-04-08 02:56:17
Audio
ID : 2
Format : AAC
Format/Info : Advanced Audio Codec
Format profile : LC
Codec ID : 40
Duration : 4mn 28s
Bit rate mode : Variable
Bit rate : 192 Kbps
Maximum bit rate : 201 Kbps
Channel(s) : 2 channels
Channel positions : Front: L R
Sampling rate : 44.1 KHz
Compression mode : Lossy
Stream size : 6.15 MiB (14%)
Title : IsoMedia File Produced by Google, 5-11-2011
Encoded date : UTC 2013-04-08 02:56:14
Tagged date : UTC 2013-04-08 02:56:17
Shared By Sbyky

Related music:
Emily Kinney - Kids 720p Music Video download Emily Kinney - Kids 720p Music Video
Video
English
60.5 MB
4.2
/images/5/3/emily-kinney-kids-720p-music-video-.jpg
PSY - Gentleman 720p Music Video download PSY - Gentleman 720p Music Video
Video
English
77.6 MB
4.9
/images/5/6/psy-gentleman-720p-music-video-.jpg
Cher Lloyd Ft T I - I Wish 720p Music Video download Cher Lloyd Ft T I - I Wish 720p Music Video
Video
English
60.6 MB
4.3
/images/5/1/cher-lloyd-ft-t-i-i-wish-720p-music-video-.jpg
John Legend - All Of Me 720p Music Video download John Legend - All Of Me 720p Music Video
Video
English
62.7 MB
4.1
/images/5/4/john-legend-all-of-me-720p-music-video-.jpg
Taylor Swift - We Are Never Ever Getting Back Together 720p Music Video download Taylor Swift - We Are Never Ever Getting Back Together 720p Music Video
Video
English
61.4 MB
4.0
/images/5/0/taylor-swift-we-are-never-ever-getting-back-together-720p-music-video-.jpg
Stromae - Papaoutai 720p Music Video download Stromae - Papaoutai 720p Music Video
Video
French
41.8 MB
4.6
/images/5/0/stromae-papaoutai-720p-music-video-.jpg
Ke$ha - Dirty Love 720p Music Video download Ke$ha - Dirty Love 720p Music Video
Video
English
77.0 MB
4.1
/images/5/7/ke24ha-dirty-love-720p-music-video-.jpg
J Cole - Work Out 720p Music Video download J Cole - Work Out 720p Music Video
Video
English
79.9 MB
4.2
/images/5/9/j-cole-work-out-720p-music-video-.jpg
Little Mix - Little Me 720p Music Video download Little Mix - Little Me 720p Music Video
Video
English
37.9 MB
4.1
/images/5/5/little-mix-little-me-720p-music-video-.jpg