Files 42316
» » Taylor Swift - Bad Blood ft Kendrick Lamar 1080p mp4
Language: English
Size: 86.8 MB
Votes: 846
Downloaded: 31
Category: Video
Format: MP3, FLAC
4.7

File list

  • Taylor Swift - Bad Blood ft. Kendrick Lamar [P-DawG].mp4 (86.8 MB)

Исполнитель:Taylor Swift. Имя файла:Bad Blood (feat Kendrick Lamar) (HD). Жанр:Country pop. Время файла:4:05.

Исполнитель:Taylor Swift. Страна: Скачиваний:105. Скриншоты созданы автоматически, без оптимизации и со сжатием, они представлены для ознакомления с содержанием и не соответствуют реальному качеству. Видео тип. Размер файла.

KendrickLamar 201901. download 10 Files download 6 Original.

Перевод текста песни Bad Blood (Remix) исполнителя (группы) Taylor Swift. I can't take it back, look where I'm at! Я не могу вернуть всё назад, посмотри, где я!

Перевод текста песни Bad Blood (Remix) исполнителя (группы) Taylor Swift. I can't take it back, look where I'm at! Я не могу вернуть всё назад, посмотри, где я!

Kendrick Lamar - Bad Blood, Swift Hits - Bad Blood - Tribute to Taylor Swift and Kendrick Lamar, Taylor Swift - Bad Blood и другие популярные треки и рингтоны. Kendrick Lamar mp3crazy. Taylor Swift –Bad Blood.

Kendrick Lamar - Bad Blood, Swift Hits - Bad Blood - Tribute to Taylor Swift and Kendrick Lamar, Taylor Swift - Bad Blood и другие популярные треки и рингтоны. R Taylor Swift –Bad Blood feat Kendrick Lamar. Разные исполнители –Bad Blood (Complete version originally.

London Boy. Taylor Swift. I'm Only Me When I'm With You.

Various Artists - Bad Blood Bad Blood, 2018 03:20. Party Tyme Karaoke - Bad Blood (Made Popular By Taylor Swift ft. Various Artists - Bad Blood Bad Blood, 2018 03:24. Kendrick Lamar) Party Tyme Karaoke - Pop Party Pack 7, 2018 03:28. The Hits - Bad Blood Bad Blood, 2017 03:16. Sounds Good - Bad Blood Sing My Song Vol 26, 2015 03:23. Andres Espinosa - Bad Blood Only Hit Music Charts, 2016 03:20. Fitspo - Bad Blood 2016 Workout Mix: New Years Resolution, 2016 03:18.

Details for this torrent. Kendrick Lamar – Bad Blood Official Music Video Free Download. Music Video Mp4 1080 p Full HD Genre: Pop – Rap – HipHop Release Date: May 2015. Get this torrent PLAY/STREAM TORRENT. BTC: 77DwAzfAZz2fMn BTC (Bech32): ew LTC: r6tcoW3WaYynx9 XMR

Please, upgrade your browser, OS or both. 0. Resolution 1920x1080.

Please, upgrade your browser, OS or both. Prosím, aktualizujte svůj prohlížeč, operační systém nebo obojí.

[P-DawG]

Cover:-

Screens:-
[image=E5ZNyuU4TP]
General Info:-
General
Complete name : Taylor Swift - Bad Blood ft. Kendrick Lamar [P-DawG].mp4
Format : MPEG-4
Format profile : Base Media
Codec ID : isom
File size : 86.8 MiB
Duration : 4mn 4s
Overall bit rate : 2 971 Kbps
Video
ID : 1
Format : AVC
Format/Info : Advanced Video Codec
Format profile : [email protected]
Format settings, CABAC : Yes
Format settings, ReFrames : 2 frames
Codec ID : avc1
Codec ID/Info : Advanced Video Coding
Duration : 4mn 4s
Bit rate mode : Variable
Bit rate : 2 841 Kbps
Width : 1 920 pixels
Height : 1 080 pixels
Display aspect ratio : 16:9
Frame rate mode : Constant
Frame rate : 23.976 fps
Color space : YUV
Chroma subsampling : 4:2:0
Bit depth : 8 bits
Scan type : Progressive
Bits/(Pixel*Frame) : 0.057
Stream size : 82.9 MiB (96%)
Audio
ID : 2
Format : AAC
Format/Info : Advanced Audio Codec
Format profile : LC
Codec ID : 40
Duration : 4mn 4s
Bit rate mode : Constant
Bit rate : 126 Kbps
Channel(s) : 2 channels
Channel positions : Front: L R
Sampling rate : 44.1 KHz
Compression mode : Lossy
Stream size : 3.67 MiB (4%)

Related music:
The Weeknd - The Hills 1080p mp4 download The Weeknd - The Hills 1080p mp4
Video
English
84.1 MB
4.7
/images/5/0/the-weeknd-the-hills-1080p-mp4.jpg
Avril Lavigne - Fly 1080p mp4 for Special Olympics download Avril Lavigne - Fly 1080p mp4 for Special Olympics
Video
English
86.9 MB
4.4
/images/5/8/avril-lavigne-fly-1080p-mp4-for-special-olympics.jpg
Ciara - I Bet 1080p mp4 download Ciara - I Bet 1080p mp4
Video
English
104.1 MB
4.3
/images/5/6/ciara-i-bet-1080p-mp4.jpg
Machine Gun Kelly - Alpha Omega 1080p mp4 download Machine Gun Kelly - Alpha Omega 1080p mp4
Video
English
50.6 MB
4.6
/images/5/3/machine-gun-kelly-alpha-omega-1080p-mp4.jpg
ZAYN - LIKE I WOULD 1080p mp4 download ZAYN - LIKE I WOULD 1080p mp4
Video
English
102.9 MB
4.5
/images/5/4/zayn-like-i-would-1080p-mp4.jpg
Chris Brown, Tyga - Ayo 1080p download Chris Brown, Tyga - Ayo 1080p
Video
English
176.0 MB
4.6
/images/noimage.jpg
Taylor Swift - Out Of The Woods 1080p mp4 download Taylor Swift - Out Of The Woods 1080p mp4
Video
English
86.8 MB
4.3
/images/5/6/taylor-swift-out-of-the-woods-1080p-mp4.jpg
Taylor Swift - Style mp4 download Taylor Swift - Style mp4
Video
English
85.9 MB
4.2
/images/5/6/taylor-swift-style-mp4.jpg