Files 42316
» » Julian Casablancas - 11th Dimension 720p Music Video
Language: English
Size: 53.6 MB
Votes: 068
Downloaded: 19
Category: Video
Format: MP3, FLAC
4.6

File list

  • Julian Casablancas - 11th Dimension [Music Video] 720p [Sbyky].MP4 (53.6 MB)

Julian Casablancas & The Voidz - Instant Crush (Live) @ Governor's Ball NYC .

Love of my life & Bohemian Rhapsody - 1080 HD - Продолжительность: 10:02 Nahuel Coca Recommended for you. 10:02. Владимир Жириновский в гостях у Ивана. Julian Casablancas & The Voidz - Instant Crush (Live) @ Governor's Ball NYC .

11th Dimension Lyrics

Produced by Mike Mogis & Jason Lader. Album Phrazes for the Young. 11th Dimension Lyrics. I just nod, I've never been so good at shaking hands I live on the frozen surface of a fireball Where cities come together, to hate each other in the name of sport America, nothing is ever just anything I looked up to you but you thought I would look the other way. And you hear, what you want to hear And they take what they want to take.

Ищете Julian Casablancas 11th Dimension? Заходите на наш сайт - слушайте и скачивайте музыку .

Ищете Julian Casablancas 11th Dimension? Заходите на наш сайт - слушайте и скачивайте музыку бесплатно. Для вас мы собрали всё самое лучшее. Forgive them even if they are not sorry All the vultrures, bootleggers at the door waiting With our luck here, for your own point but not anothers While it leaves you trapped in another dimension. Drop your guard, you don't have to be smart all of the time I've got a mind for the banks I need to go somewhere new fast And don't be shy, oh no, at least deliberately No one really cares or wonders why anymore Oh, I got music come outta my hands and feet and kisses, whoo.

Watch the video for 11th Dimension from Julian Casablancas's Phrazes For The Young for free, and see the artwork, lyrics . Scrobbling is when Last. fm tracks the music you listen to and automatically adds it to your music profile. Recent Listening Trend.

Watch the video for 11th Dimension from Julian Casablancas's Phrazes For The Young for free, and see the artwork, lyrics and similar artists.

Music video by Julian Casablancas performing 11th Dimension. C) 2010 RCA Music Group, a unit of Sony Music Entertainment. Can someone explain to me the video and meaning of the song? Like why 11th dimension? Why tie it with string theory, if it does? What's the meaning? The whole thing seems cool though :) I love the song and video :D. 4 years назад.

Julian Casablancas - 11th Dimension. 1 - Julian Casablancas - 11th Dimension.


General
Complete name : Julian Casablancas - 11th Dimension [Music Video] 720p [Sbyky].MP4
Format : MPEG-4
Format profile : Base Media
Codec ID : isom
File size : 53.6 MiB
Duration : 4mn 32s
Overall bit rate mode : Variable
Overall bit rate : 1 651 Kbps
Encoded date : UTC 2013-12-10 13:54:37
Tagged date : UTC 2013-12-10 13:54:37
Video
ID : 1
Format : AVC
Format/Info : Advanced Video Codec
Format profile : [email protected]
Format settings, CABAC : Yes
Format settings, ReFrames : 3 frames
Codec ID : avc1
Codec ID/Info : Advanced Video Coding
Duration : 4mn 32s
Bit rate : 1 523 Kbps
Width : 1 280 pixels
Height : 720 pixels
Display aspect ratio : 16:9
Frame rate mode : Constant
Frame rate : 24.000 fps
Color space : YUV
Chroma subsampling : 4:2:0
Bit depth : 8 bits
Scan type : Progressive
Bits/(Pixel*Frame) : 0.069
Stream size : 49.4 MiB (92%)
Encoded date : UTC 2013-12-10 13:54:37
Tagged date : UTC 2013-12-10 13:54:37
Audio
ID : 2
Format : AAC
Format/Info : Advanced Audio Codec
Format profile : LC
Codec ID : 40
Duration : 4mn 32s
Bit rate mode : Variable
Bit rate : 126 Kbps
Channel(s) : 2 channels
Channel positions : Front: L R
Sampling rate : 44.1 KHz
Compression mode : Lossy
Stream size : 4.08 MiB (8%)
Encoded date : UTC 2013-12-10 13:54:22
Tagged date : UTC 2013-12-10 13:54:22
Shared By Sbyky

Related music:
Britney Spears - Ooh La La 720p Music Video download Britney Spears - Ooh La La 720p Music Video
Video
English
66.7 MB
4.6
/images/5/2/britney-spears-ooh-la-la-720p-music-video-.jpg
Fall Out Boy - The Phoenix 720p Music Video download Fall Out Boy - The Phoenix 720p Music Video
Video
English
40.1 MB
4.1
/images/5/4/fall-out-boy-the-phoenix-720p-music-video-.jpg
Hot Chelle Rae - Hung Up 720p Music Video download Hot Chelle Rae - Hung Up 720p Music Video
Video
English
46.2 MB
4.5
/images/5/3/hot-chelle-rae-hung-up-720p-music-video-.jpg
John Newman - Love Me Again 720p Music Video download John Newman - Love Me Again 720p Music Video
Video
English
33.4 MB
4.9
/images/5/7/john-newman-love-me-again-720p-music-video-.jpg
One Direction - Story Of My Life 720p Music Video download One Direction - Story Of My Life 720p Music Video
Video
English
37.7 MB
4.4
/images/5/2/one-direction-story-of-my-life-720p-music-video-.jpg
Beyoncé - XO 720p Music Video download Beyoncé - XO 720p Music Video
Video
English
58.3 MB
4.2
/images/5/7/beyoncc3a9-xo-720p-music-video-.jpg
Pitbull Ft Ke$ha - Timber 720p Music Video download Pitbull Ft Ke$ha - Timber 720p Music Video
Video
English
46.9 MB
4.3
/images/5/5/pitbull-ft-ke24ha-timber-720p-music-video-.jpg
Jessie J - Thunder 720p Music Video download Jessie J - Thunder 720p Music Video
Video
English
33.5 MB
4.4
/images/5/2/jessie-j-thunder-720p-music-video-.jpg
Little Mix - Little Me 720p Music Video download Little Mix - Little Me 720p Music Video
Video
English
37.9 MB
4.1
/images/5/5/little-mix-little-me-720p-music-video-.jpg
Justin Timberlake - TKO 720p Music Video download Justin Timberlake - TKO 720p Music Video
Video
English
78.9 MB
4.3
/images/5/1/justin-timberlake-tko-720p-music-video-.jpg