Files 42316
» » Ariana Grande - Focus 1080p mp4
Language: English
Size: 99.2 MB
Votes: 916
Downloaded: 47
Category: Video
Format: MP3, FLAC
4.0

File list

  • Ariana Grande - Focus [P-DawG].mp4 (99.2 MB)

Ariana Grande - Focus 1080p. ამოიწერე განახლებები. Lexy Panterra - Dame Dame 1080p. 3. Detta - Let's Play (Original Mix) by Yeiskomp Records 1080p.

Ariana Grande - Focus 1080p. 4. Dillon Francis - Say Less (ft. G-Eazy) 1080p. 5. CMC$ & Conor Maynard - Understand Me 1080p. 6. Cosmic Gate & Emma Hewitt - Tonight 1080p.

Для запроса ARIANA GRANDE FOCUS LYRICS MP4 мы нашли 50 mp3 .

Для запроса ARIANA GRANDE FOCUS LYRICS MP4 мы нашли 50 mp3 трека, рекомендуем скачать бесплатно mp3 песню Ariana Grande Focus размером . 4 M. The Way Ariana Grande Feat Mac Miller Lyric Video Mp4. 03:48 . 0 MB 189. ARIANA GRANDE FOCUS Mp4. 03:31 . 3 MB 31. Ariana Grande Thank U Next Lyrics Mp4. 03:28 . 6 MB 8. Focus By Ariana Grande Big Fan. 03:32 . 5 MB 26. Ariana Grande Problem Lyric Video Ft Iggy Azalea. Using An Android Tablet To Read Ebooks. Hands On With The Toshiba Excite 7 Tablet At Ces 2014.

Ariana Grande! Feat Summr YlfrettuB EP, 2019 01:49. Kar Vogue - Focus Focus, 2016 03:31. Ariana Grande - imagine thank u, next, 2019 03:32. Ariana Grande - breathin Sweetener, 2018 03:18. Саид Арсланов - Ариана Гранде Ариана Гранде, 2019 04:00. Type Beat - Ariana Grande Freestyle Beats, 2019 02:10. Hawkins, Vyking - Ariana Grande Ariana Grande, 2019 02:28.

Бесплатно скачать Ariana Grande Focus Lyrics Mp4 в mp. Ariana Grande Ft Iggy Azalea Problem Official Video Lyrics Legendado YouTube1 Mp. p3.

Бесплатно скачать Ariana Grande Focus Lyrics Mp4 в mp3. Мы нашли 35 песен для скачивания, рекомендуем загрузить первый файл Ariana Grande Focus. 03:19 . 6 MB 16. Слушать Скачать.

Focus - Ariana Grande Focus KissThemGoodbye Net mp4. 1920 x 1080 jpeg 388kB. Ariana Grande - Focus (Legendado/Tradução) 1080p ᴴᴰ - YouTube. 1280 x 720 jpeg 65kB. Wallpaper Ariana Grande Focus - impremedia. 1600 x 1200 jpeg 296kB. Vevo's new home at Southern Cross Austereo - Mediaweek. 1200 x 650 jpeg 69kB.

Новый видеоклип американской поп-исполнительницы Ariana Grande на композицию Focus из третьего студийного альбома . Ariana Grande, Social House - boyfriend. Ariana Grande - Rule The World. Ariana Grande - Break Up with Your Girlfriend, I’m Bored.

Новый видеоклип американской поп-исполнительницы Ariana Grande на композицию Focus из третьего студийного альбома Moonlight (2016). Ariana Grande - 7 rings. Ariana Grande - Thank U, Next. Ariana Grande - Breathin.

[P-DawG]

Cover:-

Screens:-
https://extraimage.net/image/04C
General Info:-
General
Complete name : Ariana Grande - Focus [P-DawG].mp4
Format : MPEG-4
Format profile : Base Media
Codec ID : isom
File size : 99.2 MiB
Duration : 3mn 45s
Overall bit rate : 3 700 Kbps
Movie name : Focus [P-DawG]
Performer : Ariana Grande
Genre : Pop
Recorded date : 2015
Video
ID : 1
Format : AVC
Format/Info : Advanced Video Codec
Format profile : [email protected]
Format settings, CABAC : Yes
Format settings, ReFrames : 2 frames
Codec ID : avc1
Codec ID/Info : Advanced Video Coding
Duration : 3mn 44s
Bit rate mode : Variable
Bit rate : 3 568 Kbps
Width : 1 920 pixels
Height : 1 080 pixels
Display aspect ratio : 16:9
Frame rate mode : Constant
Frame rate : 23.976 fps
Color space : YUV
Chroma subsampling : 4:2:0
Bit depth : 8 bits
Scan type : Progressive
Bits/(Pixel*Frame) : 0.072
Stream size : 95.7 MiB (96%)
Audio
ID : 2
Format : AAC
Format/Info : Advanced Audio Codec
Format profile : LC
Codec ID : 40
Duration : 3mn 45s
Bit rate mode : Constant
Bit rate : 126 Kbps
Channel(s) : 2 channels
Channel positions : Front: L R
Sampling rate : 44.1 KHz
Compression mode : Lossy
Stream size : 3.37 MiB (3%)

Related music:
Wiz Khalifa - Elevated 1080p mp4 download Wiz Khalifa - Elevated 1080p mp4
Video
English
82.6 MB
4.0
/images/5/0/wiz-khalifa-elevated-1080p-mp4.jpg
The Weeknd - The Hills 1080p mp4 download The Weeknd - The Hills 1080p mp4
Video
English
84.1 MB
4.7
/images/5/0/the-weeknd-the-hills-1080p-mp4.jpg
Avril Lavigne - Fly 1080p mp4 for Special Olympics download Avril Lavigne - Fly 1080p mp4 for Special Olympics
Video
English
86.9 MB
4.4
/images/5/8/avril-lavigne-fly-1080p-mp4-for-special-olympics.jpg
Ciara - I Bet 1080p mp4 download Ciara - I Bet 1080p mp4
Video
English
104.1 MB
4.3
/images/5/6/ciara-i-bet-1080p-mp4.jpg
Ariana Grande Ft Big Sean - Right There 720p Music Video download Ariana Grande Ft Big Sean - Right There 720p Music Video
Video
English
63.4 MB
4.1
/images/5/6/ariana-grande-ft-big-sean-right-there-720p-music-video-.jpg
Machine Gun Kelly - Alpha Omega 1080p mp4 download Machine Gun Kelly - Alpha Omega 1080p mp4
Video
English
50.6 MB
4.6
/images/5/3/machine-gun-kelly-alpha-omega-1080p-mp4.jpg
ZAYN - LIKE I WOULD 1080p mp4 download ZAYN - LIKE I WOULD 1080p mp4
Video
English
102.9 MB
4.5
/images/5/4/zayn-like-i-would-1080p-mp4.jpg
Ariana Grande - Into You 1080p mp4 download Ariana Grande - Into You 1080p mp4
Video
English
70.9 MB
4.2
/images/5/1/ariana-grande-into-you-1080p-mp4-.jpg
Ariana Grande - Baby I 1080p Music Video download Ariana Grande - Baby I 1080p Music Video
Video
English
133.3 MB
4.1
/images/5/9/ariana-grande-baby-i-1080p-music-video-.jpg