Files 42316
» » R Kelly - When A Woman Loves KingPinVideos
Language: English
Size: 106.9 MB
Votes: 749
Downloaded: 35
Category: Video
Format: MP3, FLAC
4.4

File list

  • R Kelly - When A Woman Loves [KingPinVideos].mpg (106.9 MB)
  • R Kelly - When A Woman Loves [KingPinVideos].nfo (2.1 KB)
  • R Kelly - When A Woman Loves [KingPinVideos].txt (1.6 KB)
  • Torrent downloaded from Demonoid.com.txt (0.0 KB)
  • Torrent Downloaded from Limetorrents.com.txt (0.0 KB)

R Kelly When A Woman Loves KingPinVideos.

R Kelly When A Woman Loves KingPinVideos.

Kelly - Same Girl (feat. R Kelly When A Woman Loves KingPinVideos. lucky dube-together as one. Phil Paul.

UPDATED with video: "Gayle King" is trending . UPDATED with video: Gayle King is trending worldwide on Twitter Wednesday morning after CBS This Morning aired more of her explosive, exclusive interview with R. Kelly.

UPDATED with video: "Gayle King" is trending worldwide on Twitter Wednesday morning after CBS This Morning aired more of her explosive, exclusive interview with R. It’s the embattled R&B singer’s first interview since being jailed and pleading not guilty on a 10-count grand jury indictment of aggravated criminal sexual assault involving minors in Illinois.

When a Woman Loves (оригинал R. Kelly). Если женщина любит (перевод LadyLuck). Если женщина любит, She, she loves for real. Она любит по-настоящему. Если женщина любит, She, she, she loves for real.

Joycelyn savage, R. Kelly and Azriel Clary. Prior to the release of Lifetime’s documentary series Surviving R. Kelly in January, one of Kelly’s early alleged victims Lizzette Martinez spoke to PEOPLE and claimed Kelly had a suicide pact with the women living in his house. I was the beginning of the predatory behavior. I wa. met him after he married Aaliyah

R&B singer R. Kelly, charged with multiple counts of aggravated sexual abuse, angrily denied the accusations in a new, at times heated interview with CBS This Morning‘s Gayle King.

R&B singer R. Looking directly into the camera, Kelly, through tears, screamed, I didn’t do this stuff! This is not me! I’m fighting for my f-ing life!. Kelly was arrested in late February and charged with 10 counts of sexual abuse involving four women - three of whom were underage at the time. He pleaded not guilty and is currently free on bond

Cause when a woman's fed up (No matter how you beg, no) Mama taught me a long time ago It ain't nothing you can do about it Nothing you can do about it (Oh no, oh no) It's like running out of love (No matter what you say, no) And then it's too late to talk about it. (Too late to talk about.

Cause when a woman's fed up (No matter how you beg, no) Mama taught me a long time ago It ain't nothing you can do about it Nothing you can do about it (Oh no, oh no) It's like running out of love (No matter what you say, no) And then it's too late to talk about it. (Too late to talk about it). (throughout repeating chorus) "You can cry a river 'Til an ocean starts to form, yeah But she will always remember 'Cause she's a woman scorned And if you ever get her back It will never be the same She's cuttin' the corners of he. .

Tour Brooklyn, NY ). Related videos. R. Kelly: LIVE from Brooklyn Tour. 7:01 · 209,715 Views. Kelly: LIVE From Chicago - 12 Nights of Christmas Tour. 8:05 · 123,227 Views. 1:01 · 137,897 Views.



Code:

General
Complete name : R Kelly - When A Woman Loves [KingPinVideos].mpg
Format : MPEG-PS
File size : 107 MiB
Duration : 5mn 13s
Overall bit rate : 2 856 Kbps
Writing library : encoded by TMPGEnc 4.0 XPress Version. 4.7.4.299
Video
ID : 224 (0xE0)
Format : MPEG Video
Format version : Version 1
Format settings, BVOP : Yes
Format settings, Matrix : Default
Duration : 5mn 13s
Bit rate mode : Constant
Bit rate : 2 615 Kbps
Nominal bit rate : 2 700 Kbps
Width : 384 pixels
Height : 208 pixels
Display aspect ratio : 16:9
Frame rate : 29.970 fps
Resolution : 8 bits
Scan type : Progressive
Bits/(Pixel*Frame) : 1.092
Stream size : 97.9 MiB (92%)
Writing library : TMPGEnc XPress 4.7.4.299
Audio
ID : 192 (0xC0)
Format : MPEG Audio
Format version : Version 1
Format profile : Layer 2
Duration : 5mn 13s
Bit rate mode : Constant
Bit rate : 128 Kbps
Channel(s) : 2 channels
Sampling rate : 48.0 KHz
Stream size : 4.79 MiB (4%)
Related music:
Gucci Mane ft Swizz Beats - Gucci Time KingPinVideos download Gucci Mane ft Swizz Beats - Gucci Time KingPinVideos
Video
English
67.1 MB
4.1
/images/5/1/gucci-mane-ft-swizz-beats-gucci-time-kingpinvideos.jpg
Wiz Khalifa - Black and Yellow KingPinVideos download Wiz Khalifa - Black and Yellow KingPinVideos
Video
English
75.7 MB
4.5
/images/5/3/wiz-khalifa-black-and-yellow-kingpinvideos.jpg
Usher ft Pitbull - DJ Got Us Fallin In Love Again KingPinVideos download Usher ft Pitbull - DJ Got Us Fallin In Love Again KingPinVideos
Video
English
85.6 MB
4.4
/images/5/6/usher-ft-pitbull-dj-got-us-fallin-in-love-again-kingpinvideos.jpg
Bun B ft Drake - Put It Down KingPinVideos download Bun B ft Drake - Put It Down KingPinVideos
Video
English
97.7 MB
4.9
/images/5/1/bun-b-ft-drake-put-it-down-kingpinvideos.jpg
NE-YO - One In A Million KingPinVideos download NE-YO - One In A Million KingPinVideos
Video
English
82.3 MB
4.9
/images/5/5/ne-yo-one-in-a-million-kingpinvideos.jpg
Lil Wayne - Im Not A Human Being KingPinVideos download Lil Wayne - Im Not A Human Being KingPinVideos
Video
English
87.1 MB
4.0
/images/5/3/lil-wayne-im-not-a-human-being-kingpinvideos.jpg
Waka Flocka ft Roscoe Dash and Wale - No Hands KingPinVideos download Waka Flocka ft Roscoe Dash and Wale - No Hands KingPinVideos
Video
English
94.4 MB
4.6
/images/5/6/waka-flocka-ft-roscoe-dash-and-wale-no-hands-kingpinvideos.jpg
Jazmine Sullivan ft Missy Elliott - Holding You Down KingPinVideos Goin In Circles download Jazmine Sullivan ft Missy Elliott - Holding You Down KingPinVideos Goin In Circles
Video
English
76.3 MB
4.0
/images/5/0/jazmine-sullivan-ft-missy-elliott-holding-you-down-kingpinvideos-goin-in-circles.jpg