Files 42316
» » Ik Tu Hi Tu Hi - Mausam 720P HD Video Song 2011
Language: Hindi
Size: 86.3 MB
Votes: 453
Downloaded: 79
Category: Video
Format: MP3, FLAC
4.4

File list

  • Ik Tu Hi Tu Hi From Mausam HD Video Song.mp4 (86.3 MB)

Ik Tu Hi Tu Hi - Reprise.

Ik Tu Hi Tu Hi - Reprise. Лучшие моменты 5-ой игры Высшей лиги КВН сезона 2015 (1-ый четвертьфинал).

Select Format to Download - Ik Tu Hi Tu H.

Rabba Mein Toh Mar Gaya Oye.


Code:


Format : MPEG-4
Format profile : Base Media / Version 2
Codec ID : mp42
File size : 86.3 MiB
Duration : 2mn 55s
Overall bit rate : 4 120 Kbps
Encoded date : UTC 2011-08-26 08:12:40
Tagged date : UTC 2011-08-26 08:12:40
gsst : 0
gstd : 175720
gssd : BDD78CF0AHH1315025000512553
Video
ID : 1
Format : AVC
Format/Info : Advanced Video Codec
Format profile : [email protected]
Format settings, CABAC : Yes
Format settings, ReFrames : 1 frame
Format settings, GOP : M=1, N=25
Codec ID : avc1
Codec ID/Info : Advanced Video Coding
Duration : 2mn 55s
Bit rate : 3 964 Kbps
Maximum bit rate : 9 886 Kbps
Width : 1 920 pixels
Height : 1 080 pixels
Display aspect ratio : 16:9
Frame rate mode : Constant
Frame rate : 25.000 fps
Color space : YUV
Chroma subsampling : 4:2:0
Bit depth : 8 bits
Scan type : Progressive
Bits/(Pixel*Frame) : 0.076
Stream size : 83.0 MiB (96%)
Tagged date : UTC 2011-08-26 08:12:41
Audio
ID : 2
Format : AAC
Format/Info : Advanced Audio Codec
Format profile : LC
Codec ID : 40
Duration : 2mn 55s
Bit rate mode : Variable
Bit rate : 152 Kbps
Maximum bit rate : 191 Kbps
Channel(s) : 2 channels
Channel positions : Front: L R
Sampling rate : 44.1 KHz
Compression mode : Lossy
Stream size : 3.18 MiB (4%)
Encoded date : UTC 2011-08-26 08:12:41
Tagged date : UTC 2011-08-26 08:12:41
Ripper : Dj Tabby
Related music:
John Legend - All Of Me 720p Music Video download John Legend - All Of Me 720p Music Video
Video
English
62.7 MB
4.1
/images/5/4/john-legend-all-of-me-720p-music-video-.jpg
David Guetta ft Sia - Titanium 720p Music Video download David Guetta ft Sia - Titanium 720p Music Video
Video
English
50.0 MB
4.2
/images/5/5/david-guetta-ft-sia-titanium-720p-music-video-.jpg
LMFAO - Sexy and I Know It 1080p Music Video download LMFAO - Sexy and I Know It 1080p Music Video
Video
English
147.4 MB
4.9
/images/5/6/lmfao-sexy-and-i-know-it-1080p-music-video-.jpg
Rihanna - Where Have You Been 720p Music Video download Rihanna - Where Have You Been 720p Music Video
Video
English
71.7 MB
4.8
/images/5/3/rihanna-where-have-you-been-720p-music-video-.jpg
P!nk - Try 720p Music Video download P!nk - Try 720p Music Video
Video
English
54.4 MB
4.9
/images/5/7/p21nk-try-720p-music-video-.jpg
Katy Perry - Last Friday Night 720p T.G.I.F. download Katy Perry - Last Friday Night 720p T.G.I.F.
Video
English
130.6 MB
4.2
/images/5/7/katy-perry-last-friday-night-720p-tgif-.jpg
One Direction - What Makes You Beautiful 720p Music Video download One Direction - What Makes You Beautiful 720p Music Video
Video
English
75.0 MB
4.3
/images/5/2/one-direction-what-makes-you-beautiful-720p-music-video-.jpg
Redlight King - Old Man 720p Music Video download Redlight King - Old Man 720p Music Video
Video
English
38.7 MB
4.4
/images/5/2/redlight-king-old-man-720p-music-video-.jpg
Alexandra Stan - Get Back 720p ASAP download Alexandra Stan - Get Back 720p ASAP
Video
English
64.5 MB
4.0
/images/5/4/alexandra-stan-get-back-720p-asap-.jpg