Files 42316
» » 50 Cent Ft Joe - Big Rich Town 1080p Music Video
Language: English
Size: 72.7 MB
Votes: 118
Downloaded: 63
Category: Video
Format: MP3, FLAC
4.3

File list

  • 50 Cent Ft. Joe - Big Rich Town [Music Video] 1080p [Sbyky].MP4 (72.7 MB)

New music video by 50 Cent performing Big Rich Town feat.

New music video by 50 Cent performing Big Rich Town feat. Official soundtrack for 50's new show, Power premiering June 7th! 50's new album, Animal Ambition, coming June 3rd 2014.

Download MP3. MP3 320Kbps, . 3 Mb MP3 128Kbps, . Mb. 50 Cent feat. php?v 10152950369658797.

5 years ago 5 years ago. Hip Hop.

50 Cent’s latest venture is a STARZ original series called Power which will start airing later this year. 50 is executive producing & playing a role in the show, which will also feature original music from the rapper. Big Rich Town’ is the first taste of the soundtrack which reconnects 50 with R&B veteran Joe for the first time since G-Unit’s ‘Wanna Get To Know You‘ off Beg For Mercy. This is high quality music

to is the largest czech cloud storage.

to is the largest czech cloud storage. Please, upgrade your browser, OS or both. Prosím, aktualizujte svůj prohlížeč, operační systém nebo obojí.

50 Cent ft. Guordan Banks - Winners Circle. 50 Cent ft. Mr. Probz - Twisted.

Details for this torrent. Video ID : 1 Format : AVC Format/Info : Advanced Video Codec Format profile : [email protected]

Details for this torrent. Joe - Big Rich Town 1080p. Type: Video Music videos. Video ID : 1 Format : AVC Format/Info : Advanced Video Codec Format profile : [email protected] 0 Format settings, CABAC : Yes Format settings, ReFrames : 2 frames Codec ID : avc1 Codec ID/Info : Advanced Video Coding Duration : 2mn 48s Bit rate : 3 485 Kbps Width : 1 920 pixels Height : 1 080 pixels Display aspect ratio : 16:9 Frame rate mode : Variable Frame.


General
Complete name : 50 Cent Ft. Joe - Big Rich Town [Music Video] 1080p [Sbyky].MP4
Format : MPEG-4
Format profile : Base Media
Codec ID : isom
File size : 72.7 MiB
Duration : 2mn 48s
Overall bit rate mode : Variable
Overall bit rate : 3 613 Kbps
Encoded date : UTC 2014-04-07 03:06:28
Tagged date : UTC 2014-04-07 03:06:28
Video
ID : 1
Format : AVC
Format/Info : Advanced Video Codec
Format profile : [email protected]
Format settings, CABAC : Yes
Format settings, ReFrames : 2 frames
Codec ID : avc1
Codec ID/Info : Advanced Video Coding
Duration : 2mn 48s
Bit rate : 3 485 Kbps
Width : 1 920 pixels
Height : 1 080 pixels
Display aspect ratio : 16:9
Frame rate mode : Variable
Frame rate : 23.976 fps
Minimum frame rate : 23.974 fps
Maximum frame rate : 24.168 fps
Color space : YUV
Chroma subsampling : 4:2:0
Bit depth : 8 bits
Scan type : Progressive
Bits/(Pixel*Frame) : 0.070
Stream size : 70.1 MiB (96%)
Encoded date : UTC 2014-04-07 03:06:28
Tagged date : UTC 2014-04-07 03:06:28
Audio
ID : 2
Format : AAC
Format/Info : Advanced Audio Codec
Format profile : LC
Codec ID : 40
Duration : 2mn 48s
Bit rate mode : Variable
Bit rate : 126 Kbps
Channel(s) : 2 channels
Channel positions : Front: L R
Sampling rate : 44.1 KHz
Compression mode : Lossy
Stream size : 2.53 MiB (3%)
Encoded date : UTC 2014-04-07 03:05:58
Tagged date : UTC 2014-04-07 03:05:58
Shared By Sbyky

Related music:
Sevyn Streeter Ft Kid Ink - nEXt 1080p Music Video download Sevyn Streeter Ft Kid Ink - nEXt 1080p Music Video
Video
English
93.7 MB
4.4
/images/5/4/sevyn-streeter-ft-kid-ink-next-1080p-music-video-.jpg
One Direction - You & I 1080p Music Video download One Direction - You & I 1080p Music Video
Video
English
111.1 MB
4.5
/images/5/5/one-direction-you-26-i-1080p-music-video-.jpg
Katy Perry - Birthday 1080p Music Video download Katy Perry - Birthday 1080p Music Video
Video
English
214.8 MB
4.2
/images/5/2/katy-perry-birthday-1080p-music-video-.jpg
Shakira - Empire 1080p Music Video download Shakira - Empire 1080p Music Video
Video
English
94.2 MB
4.1
/images/5/0/shakira-empire-1080p-music-video-.jpg
50 Cent Ft Kidd Kidd - Everytime I Come Around 720p download 50 Cent Ft Kidd Kidd - Everytime I Come Around 720p
Video
English
51.9 MB
4.9
/images/5/0/50-cent-ft-kidd-kidd-everytime-i-come-around-720p-.jpg
Beyoncé - Pretty Hurts 1080p Music Video download Beyoncé - Pretty Hurts 1080p Music Video
Video
English
178.5 MB
4.2
/images/5/4/beyoncc3a9-pretty-hurts-1080p-music-video-.jpg
Priyanka Chopra - I Can't Make You Love Me 1080p Music Video download Priyanka Chopra - I Can't Make You Love Me 1080p Music Video
Video
English
112.8 MB
4.0
/images/5/3/priyanka-chopra-i-can27t-make-you-love-me-1080p-music-video-.jpg