Files 42316
» » Wale Ft Nicki Minaj & Juicy J - Clappers 1080p
Language: English
Size: 205.3 MB
Votes: 518
Downloaded: 47
Category: Video
Format: MP3, FLAC
4.1

File list

  • Wale Ft. Nicki Minaj & Juicy J - Clappers [Explicit] 1080p [Sbyky].MP4 (205.3 MB)

Nicki Minaj, Juicy J. 05:17.

Nicki Minaj, Juicy J. Download MP3. MP3 320Kbps, 1. Mb MP3 128Kbps, . 4 Mb MP3 64Kbps, . 2 Mb. Wale feat. Nicki Minaj, Juicy J. MP3 320Kbps.

Clappers to the front, got a backwood full of skunk Got a white boy with the funnel gentrifying, that's .

Clappers to the front, got a backwood full of skunk Got a white boy with the funnel gentrifying, that's whats up! Look, clappers to the front, all you niggas got the skumps Now she finna bust it loose, screaming rest in peace to Chuck It's that DMV, we up at KOD And I can CC you these CC's But don't be OC. Shout out to that cellulite Got a real bad bitch that will sell you white Got another bad bitch that will sex you right Got a couple hoodrats on Section 8 Make a nigga cum, don’t procrastinate Ass on 5-0 come crack the case Got ass . .

Wale - Clappers (Feat Nicki Minaj & Juicy J. Nicki Minaj High School ft. Lil Wayne Billboard Music Awards 2013.

Wale - Clappers (Feat Nicki Minaj & Juicy J). Nicki Minaj Queen ra. Nicki Minaj Queen rap.

Wale Ft. Nicki Minaj & Juicy J – Clappers. Nicki Minaj & Juicy J – Clappers (DJ SLICK Extended Mix). Wale x Juicy J x Nicki Minaj – Clappers. Wale & Nicki Minaj & Juicy J – Clapper (Dotcom). Fucking Music – Clappers feat Nicki Minaj & Juicy J. 5:17. Wale – Clappers feat Nicki Minaj & Juicy J. 1:35. TheMillionz, Krisis, Wiz Khalifa, Juicy J, A Rocky, Schoolboy Q, Currency, Big KRIT, Jackie Chain, Bun-B, Drake, Lil Wayne, Nicki Minaj, SBTRKT, Ellie Gouldine, Kaskade, Wale, Rick Ross, Young Jeezy, Soulja Boi, J. Cole, Missy Elliott, Chris Brown, Big – Big Krit-Temptations.

Nicki Minaj & Juicy J) - Wale. Nicki Minaj & Juicy J). Artist: Wale. Album: The Gifted, 2013.

8,332,354 followers8. Current track: Work It (feat. 50 Cent) (Remix)Work It (feat.

Nicki Minaj & Juicy J). Wale. Rick Ross, Meek Mill & T-Pain). 2013 Maybach Music Group, LLC/Atlantic for the United States and Maybach Music Group, LLC/WEA International Inc. for the world outside of the United States. Roscoe Dash & Wale).

Nicki Minaj & Juicy J Wale - Clappers Feat. Nicki Minaj & Juicy J Wale - Clappers Feat. Nicki Minaj & Juicy J. Appears on these pages.


General
Complete name : Wale Ft. Nicki Minaj & Juicy J - Clappers [Explicit] 1080p [Sbyky].MP4
Format : MPEG-4
Format profile : Base Media / Version 2
Codec ID : mp42
File size : 205 MiB
Duration : 5mn 34s
Overall bit rate mode : Variable
Overall bit rate : 5 151 Kbps
Encoded date : UTC 2013-09-02 15:25:09
Tagged date : UTC 2013-09-02 15:25:09
Video
ID : 1
Format : AVC
Format/Info : Advanced Video Codec
Format profile : [email protected]
Format settings, CABAC : Yes
Format settings, ReFrames : 1 frame
Format settings, GOP : M=1, N=48
Codec ID : avc1
Codec ID/Info : Advanced Video Coding
Duration : 5mn 34s
Bit rate : 4 957 Kbps
Maximum bit rate : 12.2 Mbps
Width : 1 920 pixels
Height : 1 080 pixels
Display aspect ratio : 16:9
Frame rate mode : Constant
Frame rate : 23.976 fps
Color space : YUV
Chroma subsampling : 4:2:0
Bit depth : 8 bits
Scan type : Progressive
Bits/(Pixel*Frame) : 0.100
Stream size : 198 MiB (96%)
Tagged date : UTC 2013-09-02 15:26:29
Audio
ID : 2
Format : AAC
Format/Info : Advanced Audio Codec
Format profile : LC
Codec ID : 40
Duration : 5mn 34s
Bit rate mode : Variable
Bit rate : 192 Kbps
Maximum bit rate : 201 Kbps
Channel(s) : 2 channels
Channel positions : Front: L R
Sampling rate : 44.1 KHz
Compression mode : Lossy
Stream size : 7.65 MiB (4%)
Title : IsoMedia File Produced by Google, 5-11-2011
Encoded date : UTC 2013-09-02 15:26:10
Tagged date : UTC 2013-09-02 15:26:29
Shared By Sbyky

Related music:
PSY - Gentleman 1080p Music Video download PSY - Gentleman 1080p Music Video
Video
English
145.3 MB
4.7
/images/5/2/psy-gentleman-1080p-music-video-.jpg
J Cole - Work Out 1080p Music Video download J Cole - Work Out 1080p Music Video
Video
English
153.3 MB
4.1
/images/5/3/j-cole-work-out-1080p-music-video-.jpg
Nicki Minaj Ft Cassie - The Boys 720p download Nicki Minaj Ft Cassie - The Boys 720p
Video
English
93.8 MB
4.7
/images/5/1/nicki-minaj-ft-cassie-the-boys-720p-.jpg
Alicia Keys Ft Nicki Minaj - Girl On Fire 1080p Inferno Version download Alicia Keys Ft Nicki Minaj - Girl On Fire 1080p Inferno Version
Video
English
154.0 MB
4.2
/images/5/2/alicia-keys-ft-nicki-minaj-girl-on-fire-1080p-inferno-version-.jpg
Sage The Gemini - Red Nose 1080p download Sage The Gemini - Red Nose 1080p
Video
English
150.6 MB
4.1
/images/5/1/sage-the-gemini-red-nose-1080p-.jpg
Wale Ft Nicki Minaj & Juicy J - Clappers 720p download Wale Ft Nicki Minaj & Juicy J - Clappers 720p
Video
English
103.6 MB
4.0
/images/5/7/wale-ft-nicki-minaj-26-juicy-j-clappers-720p-.jpg
INNA - Wow 1080p Music Video download INNA - Wow 1080p Music Video
Video
English
152.3 MB
4.0
/images/noimage.jpg
Wiz Khalifa Ft Akon - Let It Go 1080p Music Video download Wiz Khalifa Ft Akon - Let It Go 1080p Music Video
Video
English
117.5 MB
4.2
/images/5/6/wiz-khalifa-ft-akon-let-it-go-1080p-music-video-.jpg
Ciara Ft Nicki Minaj - I'm Out 720p download Ciara Ft Nicki Minaj - I'm Out 720p
Video
English
55.3 MB
4.4
/images/5/3/ciara-ft-nicki-minaj-i27m-out-720p-.jpg
2 Chainz Ft Cap 1 - Where U Been 1080p download 2 Chainz Ft Cap 1 - Where U Been 1080p
Video
English
167.6 MB
4.7
/images/5/5/2-chainz-ft-cap-1-where-u-been-1080p-.jpg