Files 42316
» » Taylor Swift - 22 2013 M4A+MP4 x264 VX 1080p
Language: English
Size: 40.3 MB
Votes: 097
Downloaded: 68
Category: Video
Format: MP3, FLAC
4.1

File list

  • Taylor Swift - 22 (1080p) x264 [VX].mp4 (35.7 MB)
  • 06 Taylor Swift - 22.m4a (4.5 MB)
  • Cover.jpg (75.5 KB)
  • Taylor Swift - 22 (1080p) x264 [VX].nfo (10.1 KB)
  • Torrent downloaded from P2PDL.com.txt (0.0 KB)

General Complete name : Taylor Swift - 22 (1080p) x264.

General Complete name : Taylor Swift - 22 (1080p) x264. Video ID : 1 Format : AVC Format/Info : Advanced Video Codec Format profile : [email protected]

Taylor Swift, Shellback, Max Martin.

Taylor Swift - 22 (1080p) x264. nfo10 KB. Torrent downloaded from P2PDL. You cannot download any of those files from here

Taylor Swift - 22 (1080p) x264. You cannot download any of those files from here. for all mankind 1s, title: Neil Gaiman The Books of Magic 1s, title: Doors of Stone 0s, title: The Simpsons S17 3s, TITANIC open matte 3s, atk mature 2s, drawlingly 3s, bhatti93 nusrat fateh 2s, Ten Billion: Whats on your plate 1s, Soshun 3s. 03s.

Halsey singing "Mean".

22 - Taylor Swift (Alex Goot, Sam Tsui, Chrissy, King The Kid Cover). Kendrick Lamar Bad Blood Master 1080p AAC. Taylor Swift - I Knew You Were Trouble (2012) 1080p x264 AAC. Taylor Swift - New Romantics. Taylor Swift Style Master 1080p PCM. 03:23. Taylor Swift - Our Song. Taylor Swift - The 1989 World Tour Live (2015) 1080p. Semisonic vs. Taylor Swift - Closing 22 (YITT mashup). 04:31. Taylor Swift - Sparks Fly. 1:27:03. Посвященный (2014) 1080р. Miami Dolphins Cheerleaders 22 by Taylor Swift.

Все песни исполнителя Taylor Swift X . Вы можете скачать бесплатно в mp3-формате, либо слушайте песню Taylor Swift - Look What You Made Me Do, Taylor Swift - I Knew You Were Trouble. Taylor Swift – 22. 2:58. Taylor Swift – Cruel Summer. Taylor Swift - Shake It Off, а также рингтоны на звонок и все новые треки.

264K views · July 22. Show More.

374K views · August 19. 0:22. 264K views · July 22.

Taylor Swift - Lover (Master 1080p NickiEX). General Unique ID : 9784539191653564936 (0EBDFF7FF60208) Complete name : Taylor Swift - 22 (MasterRip 1080p) 2013 PCM-x264

Taylor Swift - Lover (Master 1080p NickiEX). General Unique ID : 9784539191653564936 (0EBDFF7FF60208) Complete name : Taylor Swift - 22 (MasterRip 1080p) 2013 PCM-x264.


Taylor Swift - 22 2013 M4A+MP4 (1080p) x264 [VX]
1080p Full HD MP4 Video + 128 Kbps/VBR M4A Audio

Quote:


General
Complete name : Taylor Swift - 22 (1080p) x264 [VX].mp4
Format : MPEG-4
Format profile : Base Media / Version 2
Codec ID : mp42
File size : 35.7 MiB
Duration : 4mn 3s
Overall bit rate mode : Variable
Overall bit rate : 1 233 Kbps
Video
ID : 1
Format : AVC
Format/Info : Advanced Video Codec
Format profile : [email protected]
Width : 1 920 pixels
Height : 1 080 pixels
Display aspect ratio : 16:9
Frame rate mode : Variable
Frame rate : 23.976 fps
Bit depth : 8 bits
Scan type : Progressive
Bits/(Pixel*Frame) : 0.022
Stream size : 32.0 MiB (90%)
Writing library : x264 core 129
Audio
ID : 2
Format : AAC
Format/Info : Advanced Audio Codec
Bit rate mode : Variable
Bit rate : 124 Kbps
Channel(s) : 2 channels
Channel positions : Front: L R
Sampling rate : 48.0 KHz
Stream size : 3.58 MiB (10%)
Subtitles : No

Screens:



Quote:


Notes:
* Recommended to use latest version VLC Media Player.
* Install shark007 codecs in case of any kind of problem in playback (For non-VLC Media Player users).
* Alternatively, install Core AVC codecs, the fastest decoder that there is coupled with Community Center Codec Pack and play on Windows Media Player Classic.
Greets to: VYTO, a2zRG, MusiK_KinG, Kuroyukihime, Caveman, Ash968, Neon, TwentyForty, Masta, TorDigger and staff members at ExtraTorrent, TPB, H33T, KAT, , PublicHD, Ahashare, TorrentMafia, Limetorrents, BTScene, P2PDL, and all others
Encoder Notes: Looking For Early Access To Anything You Can Provide DVDScr, R5, DVDRips, BluRay, Direct Audio, Early Music
Releases, Seedboxes, Links, Dedicated Servers anything u can provide, Advance / Promo CDs/DVDs. If You Got anything to
offer contact me at "[email protected]"

Related music:
Little Mix - Little Me 1080p Music Video download Little Mix - Little Me 1080p Music Video
Video
English
74.7 MB
4.9
/images/5/1/little-mix-little-me-1080p-music-video-.jpg
BoB - Both of Us x264 VX Ft. Taylor Swift 1080p download BoB - Both of Us x264 VX Ft. Taylor Swift 1080p
Video
English
37.6 MB
4.1
/images/5/4/bob-both-of-us-x264-vx-ft-taylor-swift-1080p.jpg
INNA - Wow 1080p Music Video download INNA - Wow 1080p Music Video
Video
English
152.3 MB
4.0
/images/noimage.jpg
Taylor Swift - We Are Never Ever Getting Back Together 720p Music Video download Taylor Swift - We Are Never Ever Getting Back Together 720p Music Video
Video
English
61.4 MB
4.0
/images/5/0/taylor-swift-we-are-never-ever-getting-back-together-720p-music-video-.jpg
Taylor Swift Ft Ed Sheeran - Everything Has Changed 1080p Music Video download Taylor Swift Ft Ed Sheeran - Everything Has Changed 1080p Music Video
Video
English
94.1 MB
4.1
/images/5/7/taylor-swift-ft-ed-sheeran-everything-has-changed-1080p-music-video-.jpg
Taylor Swift - Bad Blood ft Kendrick Lamar 1080p mp4 download Taylor Swift - Bad Blood ft Kendrick Lamar 1080p mp4
Video
English
86.8 MB
4.7
/images/5/0/taylor-swift-bad-blood-ft-kendrick-lamar-1080p-mp4.jpg
One Direction - Midnight Memories X264 1080p TonyStark download One Direction - Midnight Memories X264 1080p TonyStark
Video
English
101.3 MB
4.4
/images/5/5/one-direction-midnight-memories-x264-1080p-tonystark.jpg
Taylor Swift Ft Gary Lightbody - The Last Time 1080p Music Video download Taylor Swift Ft Gary Lightbody - The Last Time 1080p Music Video
Video
English
109.7 MB
4.8
/images/5/6/taylor-swift-ft-gary-lightbody-the-last-time-1080p-music-video-.jpg
Taylor Swift - 22 720p Music Video download Taylor Swift - 22 720p Music Video
Video
English
62.5 MB
4.7
/images/5/2/taylor-swift-22-720p-music-video-.jpg