Files 42316
» » John Mayer Ft Katy Perry - Who You Love 1080p Music Video
Language: English
Size: 94.1 MB
Votes: 805
Downloaded: 36
Category: Video
Format: MP3, FLAC
4.4

File list

  • John Mayer Ft. Katy Perry - Who You Love [Music Video] 1080p [Sbyky].mp4 (94.1 MB)

John Mayer's official music video for 'Who You Love'. John Mayer, Katy Perry.

John Mayer's official music video for 'Who You Love'.

John Mayer, Katy Perry. Страна: США. Безопасный режим: выкл.

John Mayer - Who You Love ft. Katy Perry (Official Music Video).

Party Tyme Karaoke - Who You Love (Made Popular By John Mayer f. Ameritz Top Tracks - Who You Love (In the Style of John Mayer & Katy Perry) Folk Karaoke Party, 2014 04:12.

Party Tyme Karaoke - Who You Love (Made Popular By John Mayer ft. Katy Perry) Party Tyme Karaoke - Pop Male Hits 9, 2018 04:10. Fresh Daily Karaoke - Who You Love (In the Style of John Mayer & Katy Perry) Who You Love (In the Style of John Mayer & Katy Perry), 2014 04:13. Ameritz - Karaoke - Who You Love (In the Style of John Mayer and Katy Perry) Karaoke - Ultimate All Time Collaborations, Vol. 2, 2014 04:14. Pop beatz - Who You Love Who You Love - Tribute to John Mayer and Katy Perry, 2013 04:12. Connect unlimited YouTube videos. Study offline on Mobile apps.


General
Complete name : John Mayer Ft. Katy Perry - Who You Love [Music Video] 1080p [Sbyky].mp4
Format : MPEG-4
Format profile : Base Media
Codec ID : isom
File size : 94.1 MiB
Duration : 4mn 11s
Overall bit rate mode : Variable
Overall bit rate : 3 139 Kbps
Encoded date : UTC 2013-12-20 15:39:03
Tagged date : UTC 2013-12-20 15:39:03
Video
ID : 1
Format : AVC
Format/Info : Advanced Video Codec
Format profile : [email protected]
Format settings, CABAC : Yes
Format settings, ReFrames : 3 frames
Codec ID : avc1
Codec ID/Info : Advanced Video Coding
Duration : 4mn 11s
Bit rate : 3 012 Kbps
Width : 1 920 pixels
Height : 1 080 pixels
Display aspect ratio : 16:9
Frame rate mode : Constant
Frame rate : 23.976 fps
Color space : YUV
Chroma subsampling : 4:2:0
Bit depth : 8 bits
Scan type : Progressive
Bits/(Pixel*Frame) : 0.061
Stream size : 90.2 MiB (96%)
Encoded date : UTC 2013-12-20 15:39:03
Tagged date : UTC 2013-12-20 15:39:03
Audio
ID : 2
Format : AAC
Format/Info : Advanced Audio Codec
Format profile : LC
Codec ID : 40
Duration : 4mn 11s
Bit rate mode : Variable
Bit rate : 126 Kbps
Channel(s) : 2 channels
Channel positions : Front: L R
Sampling rate : 44.1 KHz
Compression mode : Lossy
Delay relative to video : 42ms
Stream size : 3.76 MiB (4%)
Encoded date : UTC 2013-12-20 15:37:28
Tagged date : UTC 2013-12-20 15:37:28
Shared By Sbyky

Related music:
John Legend - All Of Me 1080p Music Video download John Legend - All Of Me 1080p Music Video
Video
English
156.2 MB
4.2
/images/5/3/john-legend-all-of-me-1080p-music-video-.jpg
Katy Perry Ft Migos - Bon Appétit 1080p Music Video download Katy Perry Ft Migos - Bon Appétit 1080p Music Video
Video
English
99.9 MB
4.7
/images/5/4/katy-perry-ft-migos-bon-appc3a9tit-1080p-music-video-.jpg
Little Mix - Little Me 1080p Music Video download Little Mix - Little Me 1080p Music Video
Video
English
74.7 MB
4.9
/images/5/1/little-mix-little-me-1080p-music-video-.jpg
Pitbull - I Know You Want Me 1080p Music Video download Pitbull - I Know You Want Me 1080p Music Video
Video
English
96.3 MB
4.3
/images/5/9/pitbull-i-know-you-want-me-1080p-music-video-.jpg
Fall Out Boy - The Phoenix 1080p Music Video download Fall Out Boy - The Phoenix 1080p Music Video
Video
English
77.6 MB
4.9
/images/5/8/fall-out-boy-the-phoenix-1080p-music-video-.jpg
Katy Perry - Roar 1080p Music Video download Katy Perry - Roar 1080p Music Video
Video
English
188.9 MB
4.0
/images/5/1/katy-perry-roar-1080p-music-video-.jpg
Katy Perry - Birthday 1080p Music Video download Katy Perry - Birthday 1080p Music Video
Video
English
214.8 MB
4.2
/images/5/2/katy-perry-birthday-1080p-music-video-.jpg
Passenger - Let Her Go 1080p Music Video download Passenger - Let Her Go 1080p Music Video
Video
English
86.7 MB
4.2
/images/5/0/passenger-let-her-go-1080p-music-video-.jpg