Files 42316
» » Snoop Lion Ft Drake & Cori B - No Guns Allowed 720p Music Video
Language: English
Size: 69.3 MB
Votes: 941
Downloaded: 30
Category: Video
Format: MP3, FLAC
4.1

File list

  • Snoop Lion Ft. Drake & Cori B - No Guns Allowed [Music Video] 720p [Sbyky].mp4 (69.3 MB)

Money makes a man and that's a crime If we all were rich, we'd spend more time With our daughters and sons, they're losing their minds We all feel hurt, here's mine, hear me now Cause, no guns are allowed, in here tonight We're.

Money makes a man and that's a crime If we all were rich, we'd spend more time With our daughters and sons, they're losing their minds We all feel hurt, here's mine, hear me now Cause, no guns are allowed, in here tonight We're gonna have a. free-for-all, no fights I wanna get lost in the crowd, in here tonight I need to hear my thoughts, turn the music up loud Let the music play, me don't want no more gunplay When the bodies hit the ground, there's nothing left to say, ay, ay M. .

Слушать песню Snoop Dogg – No Guns Allowed feat Cori B & Drake онлайн или скачать mp3 в хорошем качестве 320 kbps на телефон (андроид . Snoop Dogg – No Guns Allowed feat Cori B & Drake.

Слушать песню Snoop Dogg – No Guns Allowed feat Cori B & Drake онлайн или скачать mp3 в хорошем качестве 320 kbps на телефон (андроид, айфон) вы можете на сайте YoSound. Snoop Lion Ft. Drake & Cori B – No Guns Allowed (Prod. Snoop Lion – No Guns Allowed feat Drake & Cori B KZ Sound. Snoop Lion (ex-Snoop Dogg), Drake, Cori B – No Guns Allowed (Reincarnated 2013). Snoop Lion x Drake x Cori B – No Guns Allowed.

No Guns Allowed (feat. Drake & Cori . 6 years ago6 years ago.

it/SLSpot?IQid SLNGA. As featured On Reincarnated. Cause, no guns are allowed in here tonight We're gonna have a free for all, no fights I wanna get lost in the crowd in here tonight I need to hear my thoughts turn the music up loud.

Drake, Cori B HD Video. Published: 29 Sep 2015. Robert DeLong Global Concepts (OFFICIAL MUSIC VIDEO). Snoop Lion ft Drake & Cori B - "No Guns Allowed". Snoop Lion - No Guns Allowed ft. Drake, Cori B. 03:32. More videos from MusicAsia. 03:30. Skylar Grey - Wear Me Out (Explicit). Snoop Dogg(Lion) - No Guns Are Allowed Ft. Drake & Cori B (Türkçe Altyazı). Snoop Lion, Cori B & Soopafly "No Guns Allowed" Live @ TBS "Conan", 03-11-2013.


General
Complete name : Snoop Lion Ft. Drake & Cori B - No Guns Allowed [Music Video] 720p [Sbyky].mp4
Format : MPEG-4
Format profile : Base Media / Version 2
Codec ID : mp42
File size : 69.3 MiB
Duration : 3mn 52s
Overall bit rate mode : Variable
Overall bit rate : 2 495 Kbps
Encoded date : UTC 2013-04-08 05:36:07
Tagged date : UTC 2013-04-08 05:36:07
Video
ID : 1
Format : AVC
Format/Info : Advanced Video Codec
Format profile : [email protected]
Format settings, CABAC : Yes
Format settings, ReFrames : 1 frame
Codec ID : avc1
Codec ID/Info : Advanced Video Coding
Duration : 3mn 52s
Bit rate : 2 300 Kbps
Maximum bit rate : 11.0 Mbps
Width : 1 280 pixels
Height : 720 pixels
Display aspect ratio : 16:9
Frame rate mode : Constant
Frame rate : 23.976 fps
Color space : YUV
Chroma subsampling : 4:2:0
Bit depth : 8 bits
Scan type : Progressive
Bits/(Pixel*Frame) : 0.104
Stream size : 63.9 MiB (92%)
Tagged date : UTC 2013-04-08 05:36:14
Audio
ID : 2
Format : AAC
Format/Info : Advanced Audio Codec
Format profile : LC
Codec ID : 40
Duration : 3mn 52s
Bit rate mode : Variable
Bit rate : 192 Kbps
Maximum bit rate : 201 Kbps
Channel(s) : 2 channels
Channel positions : Front: L R
Sampling rate : 44.1 KHz
Compression mode : Lossy
Stream size : 5.33 MiB (8%)
Title : IsoMedia File Produced by Google, 5-11-2011
Encoded date : UTC 2013-04-08 05:36:12
Tagged date : UTC 2013-04-08 05:36:14
Shared By Sbyky

Related music:
Snoop Lion Ft Drake & Cori B - No Guns Allowed 1080p Music Video download Snoop Lion Ft Drake & Cori B - No Guns Allowed 1080p Music Video
Video
English
135.6 MB
4.4
/images/5/2/snoop-lion-ft-drake-26-cori-b-no-guns-allowed-1080p-music-video-.jpg
Snoop Lion Ft Miley Cyrus - Ashtrays And Heartbreaks 1080p Music Video download Snoop Lion Ft Miley Cyrus - Ashtrays And Heartbreaks 1080p Music Video
Video
English
133.3 MB
4.2
/images/5/5/snoop-lion-ft-miley-cyrus-ashtrays-and-heartbreaks-1080p-music-video-.jpg
Snoop Lion Ft Miley Cyrus - Ashtrays And Heartbreaks 720p Music Video download Snoop Lion Ft Miley Cyrus - Ashtrays And Heartbreaks 720p Music Video
Video
English
63.3 MB
4.0
/images/5/2/snoop-lion-ft-miley-cyrus-ashtrays-and-heartbreaks-720p-music-video-.jpg
John Legend - All Of Me 720p Music Video download John Legend - All Of Me 720p Music Video
Video
English
62.7 MB
4.1
/images/5/4/john-legend-all-of-me-720p-music-video-.jpg
Ke$ha - Dirty Love 720p Music Video download Ke$ha - Dirty Love 720p Music Video
Video
English
77.0 MB
4.1
/images/5/7/ke24ha-dirty-love-720p-music-video-.jpg
Drake Ft Rihanna - Take Care 720p Music Video download Drake Ft Rihanna - Take Care 720p Music Video
Video
English
35.7 MB
4.5
/images/5/7/drake-ft-rihanna-take-care-720p-music-video-.jpg
Drake - Started From The Bottom 720p download Drake - Started From The Bottom 720p
Video
English
105.7 MB
4.2
/images/5/6/drake-started-from-the-bottom-720p-.jpg
Little Mix - Little Me 720p Music Video download Little Mix - Little Me 720p Music Video
Video
English
37.9 MB
4.1
/images/5/5/little-mix-little-me-720p-music-video-.jpg