Files 42316
» » Maher Zain - Number One For Me 720p Music Video
Language: English
Size: 72.8 MB
Votes: 600
Downloaded: 42
Category: Video
Format: MP3, FLAC
4.8

File list

  • Maher Zain - Number One For Me [Music Video] 720p [Sbyky].mp4 (72.8 MB)

Number One For Me. Исполнитель.

Number One For Me. Forgive Me. Лицензиар. от лица компании "Awakening Records"); ASCAP, BMG Rights Management, LatinAutor - PeerMusic, LatinAutor" и другие авторские общества (18). Александр Серов - Бесконечная любовь (сольный концерт в Кремлёвском Дворце - 2006 год) - Продолжительность: 1:54:12 MELOMAN VIDEO Recommended for you. 1:54:12. His Voice Is So Emotional That Even Simon Started To Cry!

Number One For Me. от лица компании "Awakening Records"); BMI - Broadcast Music In. LatinAutor - PeerMusic, BMG Rights Management, ASCAP, LatinAutor" и другие авторские общества (19).

Maher Zain - Number One For Me Official Music Video. Barakallah by Maher Zain in Toronto - RIS Canada 2009.

Number One For Me - Maher Zain. Открывайте новую музыку каждый день. Лента с персональными рекомендациями и музыкальными новинками, радио, подборки на любой вкус, удобное управление своей коллекцией

Number One For Me - Maher Zain. Лента с персональными рекомендациями и музыкальными новинками, радио, подборки на любой вкус, удобное управление своей коллекцией. Миллионы композиций бесплатно и в хорошем качестве.

With listen to This video of Music Maher Zain - Number One For Me 8D islamic Music you must use your headphones for more effect 8D experience

com/store I Love You So 00:01 Number One for Me 4:34. With listen to This video of Music Maher Zain - Number One For Me 8D islamic Music you must use your headphones for more effect 8D experience. Number One For Me Maher Zain Lirik I was a foolish little child Crazy things I used to do And all the . .Maher Zain - Number one for me - Cover by Chipmunks.


General
Complete name : Maher Zain - Number One For Me [Music Video] 720p [Sbyky].mp4
Format : MPEG-4
Format profile : Base Media
Codec ID : isom
File size : 72.8 MiB
Duration : 4mn 19s
Overall bit rate mode : Variable
Overall bit rate : 2 354 Kbps
Writing application : Lavf52.64.2
Video
ID : 1
Format : AVC
Format/Info : Advanced Video Codec
Format profile : [email protected]
Format settings, CABAC : Yes
Format settings, ReFrames : 1 frame
Codec ID : avc1
Codec ID/Info : Advanced Video Coding
Duration : 4mn 19s
Bit rate : 2 156 Kbps
Width : 1 280 pixels
Height : 720 pixels
Display aspect ratio : 16:9
Frame rate mode : Constant
Frame rate : 25.000 fps
Color space : YUV
Chroma subsampling : 4:2:0
Bit depth : 8 bits
Scan type : Progressive
Bits/(Pixel*Frame) : 0.094
Stream size : 66.7 MiB (92%)
Audio
ID : 2
Format : AAC
Format/Info : Advanced Audio Codec
Format profile : LC
Codec ID : 40
Duration : 4mn 19s
Bit rate mode : Variable
Bit rate : 192 Kbps
Channel(s) : 2 channels
Channel positions : Front: L R
Sampling rate : 44.1 KHz
Compression mode : Lossy
Delay relative to video : 200ms
Stream size : 5.94 MiB (8%)
Shared By Sbyky

Related music:
Kim Cesarion - Undressed 720p Music Video download Kim Cesarion - Undressed 720p Music Video
Video
English
32.9 MB
4.4
/images/5/9/kim-cesarion-undressed-720p-music-video-.jpg
Fall Out Boy - The Phoenix 720p Music Video download Fall Out Boy - The Phoenix 720p Music Video
Video
English
40.1 MB
4.1
/images/5/4/fall-out-boy-the-phoenix-720p-music-video-.jpg
Fall Out Boy - Where Did The Party Go 720p Music Video download Fall Out Boy - Where Did The Party Go 720p Music Video
Video
English
46.7 MB
4.9
/images/5/7/fall-out-boy-where-did-the-party-go-720p-music-video-.jpg
Coldplay - Magic 720p Music Video download Coldplay - Magic 720p Music Video
Video
English
78.4 MB
4.2
/images/5/4/coldplay-magic-720p-music-video-.jpg
Beyoncé - XO 720p Music Video download Beyoncé - XO 720p Music Video
Video
English
58.3 MB
4.2
/images/5/7/beyoncc3a9-xo-720p-music-video-.jpg
Arash Ft Helena - One Day 720p Music Video download Arash Ft Helena - One Day 720p Music Video
Video
English
43.6 MB
4.5
/images/5/3/arash-ft-helena-one-day-720p-music-video-.jpg
Pitbull Ft Ke$ha - Timber 720p Music Video download Pitbull Ft Ke$ha - Timber 720p Music Video
Video
English
46.9 MB
4.3
/images/5/5/pitbull-ft-ke24ha-timber-720p-music-video-.jpg
Little Mix - Little Me 720p Music Video download Little Mix - Little Me 720p Music Video
Video
English
37.9 MB
4.1
/images/5/5/little-mix-little-me-720p-music-video-.jpg