Files 42316
» » Mumford & Sons - I Will Wait 1080p Music Video
Language: English
Size: 139.6 MB
Votes: 098
Downloaded: 16
Category: Video
Format: MP3, FLAC
4.3

File list

  • Mumford & Sons - I Will Wait [Music Video] 1080p [Sbyky].mp4 (139.6 MB)

Music video by Mumford & Sons performing I Will Wait (C) 2013 Mumford & Sons, under exclusive license to Island Records Ltd, a division of Universal Music Operations Ltd.

Music video by Mumford & Sons performing I Will Wait (C) 2013 Mumford & Sons, under exclusive license to Island Records Ltd, a division of Universal Music Operations Ltd.

Tina Turner - Proud Mary - Live Wembley (HD 1080p) - Продолжительность: 9:32 TINA Turner Blog Recommended for you. 9:32

Tina Turner - Proud Mary - Live Wembley (HD 1080p) - Продолжительность: 9:32 TINA Turner Blog Recommended for you. 9:32. The Dead South In Hell I'll Be in Good Company Lyrics - Продолжительность: 4:13 SMj Rubel Recommended for you. 4:13. Sting And Shaggy: NPR Music Tiny Desk Concert - Продолжительность: 14:36 NPR Music Recommended for you. 14:36.

Mumford & Sons - I Will Wait (Official Audio). Passion Pit - "Constant Conversations" (Official Music Video).

Mumford & Sons-I Will Wait. ამოიწერე განახლებები. Best Music : 1. Rexanthony-Fine Pleasure. ემდეგი ვიდეო ჩაირთვება 10 წამში. ემდეგი ვიდეო გაუქმება.

EXCLUSIVE! Mumford & Sons Perform 'Only Love'. 2 years ago., 34k views. Dierks Bentley Premieres 'Woman, Amen'., 81k views. Clip of the DayView all. Previous.

Music video · 2012 · 5:07 min Free with Apple Music subscription. Get Apple Music on iOS, Android, Mac, and Windows.

Directed by FRED & NICK and using footage taken at Mumford & Sons’ Red Rocks performances 2 weeks ago, may we hereby present to you the official video for ‘I Will Wait‘!


General
Complete name : Mumford & Sons - I Will Wait [Music Video] 1080p [Sbyky].mp4
Format : MPEG-4
Format profile : Base Media / Version 2
Codec ID : mp42
File size : 140 MiB
Duration : 5mn 12s
Overall bit rate mode : Variable
Overall bit rate : 3 751 Kbps
Encoded date : UTC 2013-04-08 13:04:17
Tagged date : UTC 2013-04-08 13:04:17
Video
ID : 1
Format : AVC
Format/Info : Advanced Video Codec
Format profile : [email protected]
Format settings, CABAC : Yes
Format settings, ReFrames : 1 frame
Codec ID : avc1
Codec ID/Info : Advanced Video Coding
Duration : 5mn 12s
Bit rate : 3 557 Kbps
Maximum bit rate : 9 707 Kbps
Width : 1 920 pixels
Height : 1 080 pixels
Display aspect ratio : 16:9
Frame rate mode : Constant
Frame rate : 23.976 fps
Color space : YUV
Chroma subsampling : 4:2:0
Bit depth : 8 bits
Scan type : Progressive
Bits/(Pixel*Frame) : 0.072
Stream size : 132 MiB (95%)
Tagged date : UTC 2013-04-08 13:04:30
Audio
ID : 2
Format : AAC
Format/Info : Advanced Audio Codec
Format profile : LC
Codec ID : 40
Duration : 5mn 12s
Bit rate mode : Variable
Bit rate : 192 Kbps
Maximum bit rate : 201 Kbps
Channel(s) : 2 channels
Channel positions : Front: L R
Sampling rate : 44.1 KHz
Compression mode : Lossy
Stream size : 7.15 MiB (5%)
Title : IsoMedia File Produced by Google, 5-11-2011
Encoded date : UTC 2013-04-08 13:04:27
Tagged date : UTC 2013-04-08 13:04:30
Shared By Sbyky

Related music:
Pitbull Ft Ke$ha - Timber 1080p Music Video download Pitbull Ft Ke$ha - Timber 1080p Music Video
Video
English
85.8 MB
4.4
/images/5/7/pitbull-ft-ke24ha-timber-1080p-music-video-.jpg
PSY - Gentleman 1080p Music Video download PSY - Gentleman 1080p Music Video
Video
English
145.3 MB
4.7
/images/5/2/psy-gentleman-1080p-music-video-.jpg
J Cole - Work Out 1080p Music Video download J Cole - Work Out 1080p Music Video
Video
English
153.3 MB
4.1
/images/5/3/j-cole-work-out-1080p-music-video-.jpg
Little Mix - Little Me 1080p Music Video download Little Mix - Little Me 1080p Music Video
Video
English
74.7 MB
4.9
/images/5/1/little-mix-little-me-1080p-music-video-.jpg
INNA - Wow 1080p Music Video download INNA - Wow 1080p Music Video
Video
English
152.3 MB
4.0
/images/noimage.jpg
Wiz Khalifa Ft Akon - Let It Go 1080p Music Video download Wiz Khalifa Ft Akon - Let It Go 1080p Music Video
Video
English
117.5 MB
4.2
/images/5/6/wiz-khalifa-ft-akon-let-it-go-1080p-music-video-.jpg
Stromae - Papaoutai 1080p Music Video download Stromae - Papaoutai 1080p Music Video
Video
French
83.4 MB
4.5
/images/5/3/stromae-papaoutai-1080p-music-video-.jpg
Passenger - Let Her Go 1080p Music Video download Passenger - Let Her Go 1080p Music Video
Video
English
86.7 MB
4.2
/images/5/0/passenger-let-her-go-1080p-music-video-.jpg