Files 42316
» » Eminem Ft Rihanna - The Monster 720p
Language: English
Size: 57.4 MB
Votes: 163
Downloaded: 19
Category: Video
Format: MP3, FLAC
4.9

File list

  • Eminem Ft. Rihanna - The Monster [Explicit] 720p [Sbyky].MP4 (57.4 MB)


General
Complete name : Eminem Ft. Rihanna - The Monster [Explicit] 720p [Sbyky].MP4
Format : MPEG-4
Format profile : Base Media
Codec ID : isom
File size : 57.4 MiB
Duration : 5mn 18s
Overall bit rate mode : Variable
Overall bit rate : 1 512 Kbps
Encoded date : UTC 2013-12-15 19:30:11
Tagged date : UTC 2013-12-15 19:30:11
Video
ID : 1
Format : AVC
Format/Info : Advanced Video Codec
Format profile : [email protected]
Format settings, CABAC : Yes
Format settings, ReFrames : 3 frames
Codec ID : avc1
Codec ID/Info : Advanced Video Coding
Duration : 5mn 18s
Bit rate : 1 383 Kbps
Width : 1 280 pixels
Height : 720 pixels
Display aspect ratio : 16:9
Frame rate mode : Variable
Frame rate : 23.976 fps
Minimum frame rate : 23.974 fps
Maximum frame rate : 3 461.539 fps
Color space : YUV
Chroma subsampling : 4:2:0
Bit depth : 8 bits
Scan type : Progressive
Bits/(Pixel*Frame) : 0.063
Stream size : 52.5 MiB (91%)
Encoded date : UTC 2013-12-15 19:30:11
Tagged date : UTC 2013-12-15 19:30:11
Audio
ID : 2
Format : AAC
Format/Info : Advanced Audio Codec
Format profile : LC
Codec ID : 40
Duration : 5mn 18s
Bit rate mode : Variable
Bit rate : 126 Kbps
Channel(s) : 2 channels
Channel positions : Front: L R
Sampling rate : 44.1 KHz
Compression mode : Lossy
Delay relative to video : 42ms
Stream size : 4.77 MiB (8%)
Encoded date : UTC 2013-12-15 19:30:00
Tagged date : UTC 2013-12-15 19:30:00
Shared By Sbyky

Related music:
50 Cent Ft Eminem & Adam Levine - My Life 720p Music Video download 50 Cent Ft Eminem & Adam Levine - My Life 720p Music Video
Video
English
38.4 MB
4.0
/images/5/2/50-cent-ft-eminem-26-adam-levine-my-life-720p-music-video-.jpg
Eminem - Rap God 1080p download Eminem - Rap God 1080p
Video
English
146.1 MB
4.9
/images/5/3/eminem-rap-god-1080p-.jpg
Ariana Grande Ft Big Sean - Right There 720p Music Video download Ariana Grande Ft Big Sean - Right There 720p Music Video
Video
English
63.4 MB
4.1
/images/5/6/ariana-grande-ft-big-sean-right-there-720p-music-video-.jpg
Eminem - Berzerk 720p download Eminem - Berzerk 720p
Video
English
97.3 MB
4.2
/images/5/9/eminem-berzerk-720p-.jpg
Eminem Ft Rihanna - The Monster 1080p download Eminem Ft Rihanna - The Monster 1080p
Video
English
108.0 MB
4.7
/images/5/3/eminem-ft-rihanna-the-monster-1080p-.jpg
Miley Cyrus - Party In The U S A 720p Music Video download Miley Cyrus - Party In The U S A 720p Music Video
Video
English
55.8 MB
4.5
/images/5/6/miley-cyrus-party-in-the-u-s-a-720p-music-video-.jpg
Pitbull Ft Ke$ha - Timber 720p Music Video download Pitbull Ft Ke$ha - Timber 720p Music Video
Video
English
46.9 MB
4.3
/images/5/5/pitbull-ft-ke24ha-timber-720p-music-video-.jpg
Keyshia Cole - I Choose You 720p Music Video download Keyshia Cole - I Choose You 720p Music Video
Video
English
68.3 MB
4.1
/images/5/5/keyshia-cole-i-choose-you-720p-music-video-.jpg
Little Mix - Little Me 720p Music Video download Little Mix - Little Me 720p Music Video
Video
English
37.9 MB
4.1
/images/5/5/little-mix-little-me-720p-music-video-.jpg
Rihanna - Pour It Up 720p download Rihanna - Pour It Up 720p
Video
English
54.9 MB
4.7
/images/5/1/rihanna-pour-it-up-720p-.jpg