Files 42316
» » Wiz Khalifa - Black and Yellow KingPinVideos
Language: English
Size: 75.7 MB
Votes: 750
Downloaded: 34
Category: Video
Format: MP3, FLAC
4.5

File list

  • Wiz Khalifa - Black and Yellow [KingPinVideos].mpg (75.7 MB)
  • Wiz Khalifa - Black and Yellow [KingPinVideos].nfo (1.9 KB)
  • Wiz Khalifa - Black and Yellow [KingPinVideos].txt (1.6 KB)
  • Torrent downloaded from Demonoid.com.txt (0.0 KB)
  • Torrent Downloaded from Limetorrents.com.txt (0.0 KB)



Code:

General
Complete name : Wiz Khalifa - Black and Yellow [KingPinVideos].mpg
Format : MPEG-PS
File size : 75.7 MiB
Duration : 3mn 42s
Overall bit rate : 2 856 Kbps
Writing library : encoded by TMPGEnc 4.0 XPress Version. 4.7.4.299
Video
ID : 224 (0xE0)
Format : MPEG Video
Format version : Version 1
Format settings, BVOP : Yes
Format settings, Matrix : Default
Duration : 3mn 42s
Bit rate mode : Constant
Bit rate : 2 614 Kbps
Nominal bit rate : 2 700 Kbps
Width : 384 pixels
Height : 208 pixels
Display aspect ratio : 16:9
Frame rate : 29.970 fps
Resolution : 8 bits
Scan type : Progressive
Bits/(Pixel*Frame) : 1.092
Stream size : 69.3 MiB (92%)
Writing library : TMPGEnc XPress 4.7.4.299
Audio
ID : 192 (0xC0)
Format : MPEG Audio
Format version : Version 1
Format profile : Layer 2
Duration : 3mn 42s
Bit rate mode : Constant
Bit rate : 128 Kbps
Channel(s) : 2 channels
Sampling rate : 48.0 KHz
Stream size : 3.39 MiB (4%)
Related music:
Gucci Mane ft Swizz Beats - Gucci Time KingPinVideos download Gucci Mane ft Swizz Beats - Gucci Time KingPinVideos
Video
English
67.1 MB
4.1
/images/5/1/gucci-mane-ft-swizz-beats-gucci-time-kingpinvideos.jpg
Usher ft Pitbull - DJ Got Us Fallin In Love Again KingPinVideos download Usher ft Pitbull - DJ Got Us Fallin In Love Again KingPinVideos
Video
English
85.6 MB
4.4
/images/5/6/usher-ft-pitbull-dj-got-us-fallin-in-love-again-kingpinvideos.jpg
Bun B ft Drake - Put It Down KingPinVideos download Bun B ft Drake - Put It Down KingPinVideos
Video
English
97.7 MB
4.9
/images/5/1/bun-b-ft-drake-put-it-down-kingpinvideos.jpg
NE-YO - One In A Million KingPinVideos download NE-YO - One In A Million KingPinVideos
Video
English
82.3 MB
4.9
/images/5/5/ne-yo-one-in-a-million-kingpinvideos.jpg
Lil Wayne - Im Not A Human Being KingPinVideos download Lil Wayne - Im Not A Human Being KingPinVideos
Video
English
87.1 MB
4.0
/images/5/3/lil-wayne-im-not-a-human-being-kingpinvideos.jpg
Waka Flocka ft Roscoe Dash and Wale - No Hands KingPinVideos download Waka Flocka ft Roscoe Dash and Wale - No Hands KingPinVideos
Video
English
94.4 MB
4.6
/images/5/6/waka-flocka-ft-roscoe-dash-and-wale-no-hands-kingpinvideos.jpg
Jazmine Sullivan ft Missy Elliott - Holding You Down KingPinVideos Goin In Circles download Jazmine Sullivan ft Missy Elliott - Holding You Down KingPinVideos Goin In Circles
Video
English
76.3 MB
4.0
/images/5/0/jazmine-sullivan-ft-missy-elliott-holding-you-down-kingpinvideos-goin-in-circles.jpg