Files 42316
» » Nelly Furtado - Big Hoops 720p Bigger The Better
Language: English
Size: 56.0 MB
Votes: 098
Downloaded: 15
Category: Video
Format: MP3, FLAC
4.7

File list

  • Nelly Furtado - Big Hoops [Bigger The Better] 720p [Sbyky].mp4 (56.0 MB)

vitalya3 Well-Known Member. Video ID : 33 (0x21) Menu ID : 16727 (0x4157) Format : AVC Format/Info : Advanced Video Codec Format profile : [email protected]

vitalya3 Well-Known Member. Video ID : 33 (0x21) Menu ID : 16727 (0x4157) Format : AVC Format/Info : Advanced Video Codec Format profile : [email protected] 1 Format settings, CABAC : Yes Format settings, ReFrames : 8 frames Codec ID : 27 Duration : 3mn 52s Maximum bit rate : 3 191 Kbps Width : 1 280 pixels Height : 720 pixels Display aspect ratio : 16:9 Frame rate mode

Time release the fresh! The bigger, the better The bigger, the better The bigger, the .

Time release the fresh! The bigger, the better The bigger, the better The bigger, the better The better, the bigger.


General
Complete name : Nelly Furtado - Big Hoops [Bigger The Better] 720p [Sbyky].mp4
Format : MPEG-4
Format profile : Base Media / Version 2
Codec ID : mp42
File size : 56.0 MiB
Duration : 3mn 52s
Overall bit rate mode : Variable
Overall bit rate : 2 016 Kbps
Encoded date : UTC 2013-06-12 13:31:41
Tagged date : UTC 2013-06-12 13:31:41
Video
ID : 1
Format : AVC
Format/Info : Advanced Video Codec
Format profile : [email protected]
Format settings, CABAC : Yes
Format settings, ReFrames : 1 frame
Format settings, GOP : M=1, N=60
Codec ID : avc1
Codec ID/Info : Advanced Video Coding
Duration : 3mn 52s
Bit rate : 1 822 Kbps
Maximum bit rate : 4 392 Kbps
Width : 1 280 pixels
Height : 720 pixels
Display aspect ratio : 16:9
Frame rate mode : Constant
Frame rate : 23.976 fps
Color space : YUV
Chroma subsampling : 4:2:0
Bit depth : 8 bits
Scan type : Progressive
Bits/(Pixel*Frame) : 0.082
Stream size : 50.6 MiB (90%)
Tagged date : UTC 2013-06-12 13:31:44
Audio
ID : 2
Format : AAC
Format/Info : Advanced Audio Codec
Format profile : LC
Codec ID : 40
Duration : 3mn 52s
Bit rate mode : Variable
Bit rate : 192 Kbps
Maximum bit rate : 202 Kbps
Channel(s) : 2 channels
Channel positions : Front: L R
Sampling rate : 44.1 KHz
Compression mode : Lossy
Stream size : 5.33 MiB (10%)
Title : IsoMedia File Produced by Google, 5-11-2011
Encoded date : UTC 2013-06-12 13:31:43
Tagged date : UTC 2013-06-12 13:31:44
Shared By Sbyky

Related music:
Nelly Furtado - Waiting For The Night 1080p Music Video download Nelly Furtado - Waiting For The Night 1080p Music Video
Video
English
91.6 MB
4.2
/images/5/8/nelly-furtado-waiting-for-the-night-1080p-music-video-.jpg
Emily Kinney - Kids 720p Music Video download Emily Kinney - Kids 720p Music Video
Video
English
60.5 MB
4.2
/images/5/3/emily-kinney-kids-720p-music-video-.jpg
Cher Lloyd Ft T I - I Wish 720p Music Video download Cher Lloyd Ft T I - I Wish 720p Music Video
Video
English
60.6 MB
4.3
/images/5/1/cher-lloyd-ft-t-i-i-wish-720p-music-video-.jpg
John Legend - All Of Me 720p Music Video download John Legend - All Of Me 720p Music Video
Video
English
62.7 MB
4.1
/images/5/4/john-legend-all-of-me-720p-music-video-.jpg
Taylor Swift - We Are Never Ever Getting Back Together 720p Music Video download Taylor Swift - We Are Never Ever Getting Back Together 720p Music Video
Video
English
61.4 MB
4.0
/images/5/0/taylor-swift-we-are-never-ever-getting-back-together-720p-music-video-.jpg
Stromae - Papaoutai 720p Music Video download Stromae - Papaoutai 720p Music Video
Video
French
41.8 MB
4.6
/images/5/0/stromae-papaoutai-720p-music-video-.jpg
Ke$ha - Dirty Love 720p Music Video download Ke$ha - Dirty Love 720p Music Video
Video
English
77.0 MB
4.1
/images/5/7/ke24ha-dirty-love-720p-music-video-.jpg
J Cole - Work Out 720p Music Video download J Cole - Work Out 720p Music Video
Video
English
79.9 MB
4.2
/images/5/9/j-cole-work-out-720p-music-video-.jpg
Little Mix - Little Me 720p Music Video download Little Mix - Little Me 720p Music Video
Video
English
37.9 MB
4.1
/images/5/5/little-mix-little-me-720p-music-video-.jpg