Files 42316
» » John Legend - All Of Me 1080p Music Video
Language: English
Size: 156.2 MB
Votes: 479
Downloaded: 43
Category: Video
Format: MP3, FLAC
4.2

File list

  • John Legend - All Of Me [Music Video] 1080p [Sbyky].MP4 (156.2 MB)

John Legend's official music video for 'All Of Me.

Cause all of me Loves all of you Love your curves and all your edges All your perfect imperfections Give your all to me I'll give my all to you You're my end and my beginning Even when I lose I'm winning 'Cause I give you all of me And you give me all of you, oh. oh".

The music video was shot in Italy just days before John Legend's wedding, featuring his fiancé, model Chrissy Teigen. In the video the couple "gets naked and makes love in the shower and underwater, while he serenades her with the song". Video: APCH 1920x1080 2. 76fps 144165kbps Audio: QT PCM 48000Hz stereo 1536kbps.

Forums Video Mania Music Videos Masters & BLU-RAY Master & Master RIP . MASTER John Legend - All Of Me (Master-1080p). Discussion in 'MASTER & MASTER RIP' started by nickiexclusive, Oct 3, 2016. Page 1 of 3. 1 2 3 Next . nickiexclusive Video Maniac V. I. P. Uploader. Joined: Sep 23, 2014. John Legend - All Of Me (Master-1080p) Hidden content cannot be quoted.

As featured on Love In The Future. Google Play: smarturl. Опубликовано: 2 окт 2013. As featured on Love In The Future.


General
Complete name : John Legend - All Of Me [Music Video] 1080p [Sbyky].MP4
Format : MPEG-4
Format profile : Base Media
Codec ID : isom
File size : 156 MiB
Duration : 5mn 7s
Overall bit rate mode : Variable
Overall bit rate : 4 264 Kbps
Encoded date : UTC 2013-09-30 23:31:09
Tagged date : UTC 2013-09-30 23:31:09
Video
ID : 1
Format : AVC
Format/Info : Advanced Video Codec
Format profile : [email protected]
Format settings, CABAC : Yes
Format settings, ReFrames : 3 frames
Codec ID : avc1
Codec ID/Info : Advanced Video Coding
Duration : 5mn 7s
Bit rate : 4 136 Kbps
Width : 1 920 pixels
Height : 1 080 pixels
Display aspect ratio : 16:9
Frame rate mode : Constant
Frame rate : 23.976 fps
Color space : YUV
Chroma subsampling : 4:2:0
Bit depth : 8 bits
Scan type : Progressive
Bits/(Pixel*Frame) : 0.083
Stream size : 151 MiB (97%)
Encoded date : UTC 2013-09-30 23:31:09
Tagged date : UTC 2013-09-30 23:31:09
Audio
ID : 2
Format : AAC
Format/Info : Advanced Audio Codec
Format profile : LC
Codec ID : 40
Duration : 5mn 7s
Bit rate mode : Variable
Bit rate : 126 Kbps
Channel(s) : 2 channels
Channel positions : Front: L R
Sampling rate : 44.1 KHz
Compression mode : Lossy
Delay relative to video : 42ms
Stream size : 4.60 MiB (3%)
Encoded date : UTC 2013-11-12 05:19:27
Tagged date : UTC 2013-11-12 05:19:27
Shared By Sbyky

Related music:
Little Mix - Little Me 1080p Music Video download Little Mix - Little Me 1080p Music Video
Video
English
74.7 MB
4.9
/images/5/1/little-mix-little-me-1080p-music-video-.jpg
Britney Spears - Ooh La La 1080p Music Video download Britney Spears - Ooh La La 1080p Music Video
Video
English
119.6 MB
4.7
/images/5/9/britney-spears-ooh-la-la-1080p-music-video-.jpg
Pitbull - I Know You Want Me 1080p Music Video download Pitbull - I Know You Want Me 1080p Music Video
Video
English
96.3 MB
4.3
/images/5/9/pitbull-i-know-you-want-me-1080p-music-video-.jpg
Fall Out Boy - The Phoenix 1080p Music Video download Fall Out Boy - The Phoenix 1080p Music Video
Video
English
77.6 MB
4.9
/images/5/8/fall-out-boy-the-phoenix-1080p-music-video-.jpg
Wiz Khalifa - Paperbond 1080p Music Video download Wiz Khalifa - Paperbond 1080p Music Video
Video
English
91.9 MB
4.2
/images/5/6/wiz-khalifa-paperbond-1080p-music-video-.jpg
INNA - Wow 1080p Music Video download INNA - Wow 1080p Music Video
Video
English
152.3 MB
4.0
/images/noimage.jpg
Avicii - Hey Brother 1080p Music Video download Avicii - Hey Brother 1080p Music Video
Video
English
73.7 MB
4.9
/images/5/4/avicii-hey-brother-1080p-music-video-.jpg
Demi Lovato - Let It Go 1080p Music Video download Demi Lovato - Let It Go 1080p Music Video
Video
English
87.5 MB
4.0
/images/5/9/demi-lovato-let-it-go-1080p-music-video-.jpg
Passenger - Let Her Go 1080p Music Video download Passenger - Let Her Go 1080p Music Video
Video
English
86.7 MB
4.2
/images/5/0/passenger-let-her-go-1080p-music-video-.jpg