Files 42316
» » PSY - Gentleman 720p Music Video
Language: English
Size: 77.6 MB
Votes: 487
Downloaded: 39
Category: Video
Format: MP3, FLAC
4.9

File list

  • PSY - Gentleman [Music Video] 720p [Sbyky].mp4 (77.6 MB)

Корейский исполнитель PSY c новым синглом Gentleman (2013). Lizzo - Jerome (Live at the 2019 American Music Awards) 2. 1. Opeth - Universal Truth 2.

Корейский исполнитель PSY c новым синглом Gentleman (2013). The Temper Trap - Sweet Disposition (Blazy & Sighter Rmx) 2.

If you like Psy gentleman music video, you might love these ideas. Psy is introducing his new single, Gentleman, after he sparked an international dance craze with the release of his hit Gangnam Style last year. Gentleman - Psy-Things That Went Viral in 2013. K-pop Chart Roundup: PSY Remains at No. 1, Reaches Top Five of Billboard Hot 100. Kpop Viral Videos Psy Gentleman Gentleman Video Video Clips Psy Gangnam Style News Songs Hit Songs Playlists.

Music video · 2013 · 3:54 min Free with Apple Music subscription. Get Apple Music on iOS, Android, Mac, and Windows. PSY. Pop. Jan 1, 2013. 2013 Schoolboy/Universal Republic Records, a division of UMG Recordings, Inc. View on Apple Music.

Gentleman (Psy) Artist Psy Director Unknown; no director specified Label Unknown; no label. Psy - gentleman M/V. canembed.


General
Complete name : PSY - Gentleman [Music Video] 720p [Sbyky].mp4
Format : MPEG-4
Format profile : Base Media / Version 2
Codec ID : mp42
File size : 77.6 MiB
Duration : 3mn 53s
Overall bit rate mode : Variable
Overall bit rate : 2 791 Kbps
Encoded date : UTC 2013-04-15 09:02:29
Tagged date : UTC 2013-04-15 09:02:29
Video
ID : 1
Format : AVC
Format/Info : Advanced Video Codec
Format profile : [email protected]
Format settings, CABAC : Yes
Format settings, ReFrames : 1 frame
Codec ID : avc1
Codec ID/Info : Advanced Video Coding
Duration : 3mn 53s
Bit rate : 2 597 Kbps
Maximum bit rate : 5 451 Kbps
Width : 1 280 pixels
Height : 720 pixels
Display aspect ratio : 16:9
Frame rate mode : Constant
Frame rate : 23.976 fps
Color space : YUV
Chroma subsampling : 4:2:0
Bit depth : 8 bits
Scan type : Progressive
Bits/(Pixel*Frame) : 0.118
Stream size : 72.2 MiB (93%)
Tagged date : UTC 2013-04-15 09:02:35
Audio
ID : 2
Format : AAC
Format/Info : Advanced Audio Codec
Format profile : LC
Codec ID : 40
Duration : 3mn 53s
Bit rate mode : Variable
Bit rate : 192 Kbps
Maximum bit rate : 201 Kbps
Channel(s) : 2 channels
Channel positions : Front: L R
Sampling rate : 44.1 KHz
Compression mode : Lossy
Stream size : 5.34 MiB (7%)
Title : IsoMedia File Produced by Google, 5-11-2011
Encoded date : UTC 2013-04-15 09:02:34
Tagged date : UTC 2013-04-15 09:02:35
Shared By Sbyky

Related music:
Emily Kinney - Kids 720p Music Video download Emily Kinney - Kids 720p Music Video
Video
English
60.5 MB
4.2
/images/5/3/emily-kinney-kids-720p-music-video-.jpg
PSY - Gentleman 1080p Music Video download PSY - Gentleman 1080p Music Video
Video
English
145.3 MB
4.7
/images/5/2/psy-gentleman-1080p-music-video-.jpg
Cher Lloyd Ft T I - I Wish 720p Music Video download Cher Lloyd Ft T I - I Wish 720p Music Video
Video
English
60.6 MB
4.3
/images/5/1/cher-lloyd-ft-t-i-i-wish-720p-music-video-.jpg
John Legend - All Of Me 720p Music Video download John Legend - All Of Me 720p Music Video
Video
English
62.7 MB
4.1
/images/5/4/john-legend-all-of-me-720p-music-video-.jpg
Taylor Swift - We Are Never Ever Getting Back Together 720p Music Video download Taylor Swift - We Are Never Ever Getting Back Together 720p Music Video
Video
English
61.4 MB
4.0
/images/5/0/taylor-swift-we-are-never-ever-getting-back-together-720p-music-video-.jpg
Stromae - Papaoutai 720p Music Video download Stromae - Papaoutai 720p Music Video
Video
French
41.8 MB
4.6
/images/5/0/stromae-papaoutai-720p-music-video-.jpg
Ke$ha - Dirty Love 720p Music Video download Ke$ha - Dirty Love 720p Music Video
Video
English
77.0 MB
4.1
/images/5/7/ke24ha-dirty-love-720p-music-video-.jpg
J Cole - Work Out 720p Music Video download J Cole - Work Out 720p Music Video
Video
English
79.9 MB
4.2
/images/5/9/j-cole-work-out-720p-music-video-.jpg
Little Mix - Little Me 720p Music Video download Little Mix - Little Me 720p Music Video
Video
English
37.9 MB
4.1
/images/5/5/little-mix-little-me-720p-music-video-.jpg