Files 42316
» » Miley Cyrus - Wrecking Ball 1080p Music Video
Language: English
Size: 94.6 MB
Votes: 408
Downloaded: 71
Category: Video
Format: MP3, FLAC
4.5

File list

  • Miley Cyrus - Wrecking Ball [Music Video] 1080p [Sbyky].mp4 (94.6 MB)

Miley Cyrus live performance in American Music Alwards 2013.

Miley Cyrus live performance in American Music Alwards 2013. Madonna - Vogue (from MDNA World Tour) - Продолжительность: 4:08 Madonna Recommended for you.

Artist: Miley Cyrus Title: Wrecking Ball Year: 2013 Source: Master Label Video Codec: ProRes 1080p. We have an extense video vault, and you can have it too, exchange videos with us. Only accept Best Quality sources like ProRes, DV, or High Bitrate Master Sources. Sample: Write to admincvidcollector. com if you want this video. Author adminPosted on May 16, 2018July 4, 2019Categories Miley CyrusTags 2013, Master Label, Miley Cyrus, ProRes 1080p. Leave a Reply Cancel reply. Video Services like PromoOnly, ETV, or videos with TAG or Logo, encoded videos to mkv, etc, not accepted.

Miley Cyrus - Adore You HD 1080 Official Music Video. Miley Cyrus - Wrecking Ball - 2013 American Music Awards. Miley Cyrus Performing 'Wrecking Ball' On The X Factor UK - 17/11/13 - 1080p HD. Miley Ray-Cyrus.

Forums Video Mania Music Videos . Miley Cyrus - Wrecking Ball -. Discussion in 'Music Videos' started by KingHV, Oct 18, 2019. Video Bitrate: 4000Kbps (1920 x 1080) Bit Depth: 10Bits Audio Bitrate: 256Kbps (stereo).

Wrecking Ball (Miley Cyrus song). Wrecking Ball" is a song recorded by American singer Miley Cyrus for her fourth studio album Bangerz (2013). It was released on August 25, 2013, by RCA Records as the album's second single. The song was written by Dr. Luke and Cirkut, who also served as the producers, as well as Mozella, Stephan Moccio, Sacha Skarbek, David Kim, and Cyrus

Miley Cyrus Wreckingball Miley Cyrus 2012 Miley Cyrus News Irish Guys Miley Cyrus Photoshoot Music Videos Wtf Moments Celebs Terry Richardson.

Miley Cyrus Wreckingball Miley Cyrus 2012 Miley Cyrus News Irish Guys Miley Cyrus Photoshoot Music Videos Wtf Moments Celebs Terry Richardson. miley cyrus wrecking ball video Miley Cyrus e goala in clipul pentru Wrecking Ball. miley cyrus wrecking ball video 9/9/013. James Hangs Out With "Funny as Feck" 50 Shades Star Dakota Johnson. Miley Cyrus: Nude in 'Wrecking Ball' Video - WATCH NOW! Miley Cyrus, Music Video, Naked, Nude Photos Just Jared. Celebrities Real Names Buzzfeed Viral Videos Miley Cyrus Gif Nice Things Naked 1080p Grief Billy Ray.


General
Complete name : Miley Cyrus - Wrecking Ball [Music Video] 1080p [Sbyky].mp4
Format : MPEG-4
Format profile : Base Media / Version 2
Codec ID : mp42
File size : 94.6 MiB
Duration : 3mn 41s
Overall bit rate mode : Variable
Overall bit rate : 3 587 Kbps
Encoded date : UTC 2013-09-05 17:32:53
Tagged date : UTC 2013-09-05 17:32:53
Video
ID : 1
Format : AVC
Format/Info : Advanced Video Codec
Format profile : [email protected]
Format settings, CABAC : Yes
Format settings, ReFrames : 1 frame
Codec ID : avc1
Codec ID/Info : Advanced Video Coding
Duration : 3mn 41s
Bit rate : 3 393 Kbps
Maximum bit rate : 9 526 Kbps
Width : 1 920 pixels
Height : 1 080 pixels
Display aspect ratio : 16:9
Frame rate mode : Constant
Frame rate : 23.976 fps
Color space : YUV
Chroma subsampling : 4:2:0
Bit depth : 8 bits
Scan type : Progressive
Bits/(Pixel*Frame) : 0.068
Stream size : 89.5 MiB (95%)
Tagged date : UTC 2013-09-05 17:32:56
Audio
ID : 2
Format : AAC
Format/Info : Advanced Audio Codec
Format profile : LC
Codec ID : 40
Duration : 3mn 41s
Bit rate mode : Variable
Bit rate : 192 Kbps
Maximum bit rate : 201 Kbps
Channel(s) : 2 channels
Channel positions : Front: L R
Sampling rate : 44.1 KHz
Compression mode : Lossy
Stream size : 5.06 MiB (5%)
Title : IsoMedia File Produced by Google, 5-11-2011
Encoded date : UTC 2013-09-05 17:32:55
Tagged date : UTC 2013-09-05 17:32:56
Shared By Sbyky

Related music:
Little Mix - Little Me 1080p Music Video download Little Mix - Little Me 1080p Music Video
Video
English
74.7 MB
4.9
/images/5/1/little-mix-little-me-1080p-music-video-.jpg
Snoop Lion Ft Miley Cyrus - Ashtrays And Heartbreaks 1080p Music Video download Snoop Lion Ft Miley Cyrus - Ashtrays And Heartbreaks 1080p Music Video
Video
English
133.3 MB
4.2
/images/5/5/snoop-lion-ft-miley-cyrus-ashtrays-and-heartbreaks-1080p-music-video-.jpg
Snoop Lion Ft Miley Cyrus - Ashtrays And Heartbreaks 720p Music Video download Snoop Lion Ft Miley Cyrus - Ashtrays And Heartbreaks 720p Music Video
Video
English
63.3 MB
4.0
/images/5/2/snoop-lion-ft-miley-cyrus-ashtrays-and-heartbreaks-720p-music-video-.jpg
INNA - Wow 1080p Music Video download INNA - Wow 1080p Music Video
Video
English
152.3 MB
4.0
/images/noimage.jpg
Stromae - Papaoutai 1080p Music Video download Stromae - Papaoutai 1080p Music Video
Video
French
83.4 MB
4.5
/images/5/3/stromae-papaoutai-1080p-music-video-.jpg
Will I Am Ft Miley Cyrus, French Montana & Wiz Khalifa - Feelin' Myself 1080p Music Video download Will I Am Ft Miley Cyrus, French Montana & Wiz Khalifa - Feelin' Myself 1080p Music Video
Video
English
86.7 MB
4.3
/images/5/5/will-i-am-ft-miley-cyrus2c-french-montana-26-wiz-khalifa-feelin27-myself-1080p-music-video-.jpg
Miley Cyrus - Party In The U S A 720p Music Video download Miley Cyrus - Party In The U S A 720p Music Video
Video
English
55.8 MB
4.5
/images/5/6/miley-cyrus-party-in-the-u-s-a-720p-music-video-.jpg
Miley Cyrus - Wrecking Ball 720p Music Video download Miley Cyrus - Wrecking Ball 720p Music Video
Video
English
40.8 MB
4.5
/images/5/7/miley-cyrus-wrecking-ball-720p-music-video-.jpg
Miley Cyrus - Who Owns My Heart 720p Music Video download Miley Cyrus - Who Owns My Heart 720p Music Video
Video
English
52.4 MB
4.1
/images/5/9/miley-cyrus-who-owns-my-heart-720p-music-video-.jpg