Files 42316
» » Enrique Iglesias Ft Sammy Adams - Finally Found You 1080p Music Video
Language: English
Size: 83.1 MB
Votes: 739
Downloaded: 31
Category: Video
Format: MP3, FLAC
4.3

File list

  • Enrique Iglesias Ft. Sammy Adams - Finally Found You [Music Video] 1080p [Sbyky].mp4 (83.1 MB)

Enrique Iglesias Finally Found You feat. Sammy Adams - Finally Found You (R3hab Clean Remix) –Enrique Iglesias feat.

Enrique Iglesias Finally Found You feat. по названию по исполнителю. Sammy Adams - Finall. :43. By Saqa –Enrique Iglesias ft Sammy Adams - Finall. :38. Enrique Iglesias –Finally Found You feat Sammy Adams) (DF. :29. Enrique Iglesias feat. Sammy Adams –Finally Found You Tarona. Enrique Iglesias –Finally Found You feat Sammy Adams.

Sammy Adams) - Precision Tunes. Открывайте новую музыку каждый день. Исполнитель: Precision Tunes. Лента с персональными рекомендациями и музыкальными новинками, радио, подборки на любой вкус, удобное управление своей коллекцией. Миллионы композиций бесплатно и в хорошем качестве.


General
Complete name : Enrique Iglesias Ft. Sammy Adams - Finally Found You [Music Video] 1080p [Sbyky].mp4
Format : MPEG-4
Format profile : Base Media / Version 2
Codec ID : mp42
File size : 83.1 MiB
Duration : 3mn 57s
Overall bit rate mode : Variable
Overall bit rate : 2 937 Kbps
Encoded date : UTC 2013-04-08 10:32:36
Tagged date : UTC 2013-04-08 10:32:36
Video
ID : 1
Format : AVC
Format/Info : Advanced Video Codec
Format profile : [email protected]
Format settings, CABAC : Yes
Format settings, ReFrames : 1 frame
Codec ID : avc1
Codec ID/Info : Advanced Video Coding
Duration : 3mn 57s
Bit rate : 2 743 Kbps
Maximum bit rate : 6 313 Kbps
Width : 1 920 pixels
Height : 1 080 pixels
Display aspect ratio : 16:9
Frame rate mode : Constant
Frame rate : 23.976 fps
Color space : YUV
Chroma subsampling : 4:2:0
Bit depth : 8 bits
Scan type : Progressive
Bits/(Pixel*Frame) : 0.055
Stream size : 77.6 MiB (93%)
Tagged date : UTC 2013-04-08 10:32:40
Audio
ID : 2
Format : AAC
Format/Info : Advanced Audio Codec
Format profile : LC
Codec ID : 40
Duration : 3mn 57s
Bit rate mode : Variable
Bit rate : 192 Kbps
Maximum bit rate : 201 Kbps
Channel(s) : 2 channels
Channel positions : Front: L R
Sampling rate : 44.1 KHz
Compression mode : Lossy
Stream size : 5.43 MiB (7%)
Title : IsoMedia File Produced by Google, 5-11-2011
Encoded date : UTC 2013-04-08 10:32:39
Tagged date : UTC 2013-04-08 10:32:40
Shared By Sbyky

Related music:
J Cole - Work Out 1080p Music Video download J Cole - Work Out 1080p Music Video
Video
English
153.3 MB
4.1
/images/5/3/j-cole-work-out-1080p-music-video-.jpg
Little Mix - Little Me 1080p Music Video download Little Mix - Little Me 1080p Music Video
Video
English
74.7 MB
4.9
/images/5/1/little-mix-little-me-1080p-music-video-.jpg
INNA - Wow 1080p Music Video download INNA - Wow 1080p Music Video
Video
English
152.3 MB
4.0
/images/noimage.jpg
Wiz Khalifa Ft Akon - Let It Go 1080p Music Video download Wiz Khalifa Ft Akon - Let It Go 1080p Music Video
Video
English
117.5 MB
4.2
/images/5/6/wiz-khalifa-ft-akon-let-it-go-1080p-music-video-.jpg
Stromae - Papaoutai 1080p Music Video download Stromae - Papaoutai 1080p Music Video
Video
French
83.4 MB
4.5
/images/5/3/stromae-papaoutai-1080p-music-video-.jpg
Enrique Iglesias Ft Romeo Santos - Loco 720p Music Video download Enrique Iglesias Ft Romeo Santos - Loco 720p Music Video
Video
Spanish
37.7 MB
4.2
/images/5/6/enrique-iglesias-ft-romeo-santos-loco-720p-music-video-.jpg
Enrique Iglesias - Turn The Night Up 1080p Music Video download Enrique Iglesias - Turn The Night Up 1080p Music Video
Video
English
121.1 MB
4.0
/images/5/2/enrique-iglesias-turn-the-night-up-1080p-music-video-.jpg
Enrique Iglesias Ft Sammy Adams - Finally Found You 720p Music Video download Enrique Iglesias Ft Sammy Adams - Finally Found You 720p Music Video
Video
English
42.9 MB
4.1
/images/5/6/enrique-iglesias-ft-sammy-adams-finally-found-you-720p-music-video-.jpg