Files 42316
» » Jason Aldean - Night Train 1080p Music Video
Language: English
Size: 95.5 MB
Votes: 184
Downloaded: 32
Category: Video
Format: MP3, FLAC
4.8

File list

  • Jason Aldean - Night Train [Music Video] 1080p [Sbyky].mp4 (95.5 MB)


General
Complete name : Jason Aldean - Night Train [Music Video] 1080p [Sbyky].mp4
Format : MPEG-4
Format profile : Base Media / Version 2
Codec ID : mp42
File size : 95.5 MiB
Duration : 4mn 1s
Overall bit rate mode : Variable
Overall bit rate : 3 315 Kbps
Encoded date : UTC 2013-08-07 16:13:53
Tagged date : UTC 2013-08-07 16:13:53
Video
ID : 1
Format : AVC
Format/Info : Advanced Video Codec
Format profile : [email protected]
Format settings, CABAC : Yes
Format settings, ReFrames : 1 frame
Codec ID : avc1
Codec ID/Info : Advanced Video Coding
Duration : 4mn 1s
Bit rate : 3 120 Kbps
Maximum bit rate : 6 902 Kbps
Width : 1 920 pixels
Height : 1 080 pixels
Display aspect ratio : 16:9
Frame rate mode : Constant
Frame rate : 23.976 fps
Color space : YUV
Chroma subsampling : 4:2:0
Bit depth : 8 bits
Scan type : Progressive
Bits/(Pixel*Frame) : 0.063
Stream size : 89.9 MiB (94%)
Tagged date : UTC 2013-08-07 16:14:05
Audio
ID : 2
Format : AAC
Format/Info : Advanced Audio Codec
Format profile : LC
Codec ID : 40
Duration : 4mn 1s
Bit rate mode : Variable
Bit rate : 192 Kbps
Maximum bit rate : 201 Kbps
Channel(s) : 2 channels
Channel positions : Front: L R
Sampling rate : 44.1 KHz
Compression mode : Lossy
Stream size : 5.53 MiB (6%)
Title : IsoMedia File Produced by Google, 5-11-2011
Encoded date : UTC 2013-08-07 16:14:01
Tagged date : UTC 2013-08-07 16:14:05
Shared By Sbyky

Related music:
J Cole - Work Out 1080p Music Video download J Cole - Work Out 1080p Music Video
Video
English
153.3 MB
4.1
/images/5/3/j-cole-work-out-1080p-music-video-.jpg
Jason Aldean - Take A Little Ride 1080p Music Video download Jason Aldean - Take A Little Ride 1080p Music Video
Video
English
120.4 MB
4.9
/images/5/7/jason-aldean-take-a-little-ride-1080p-music-video-.jpg
Little Mix - Little Me 1080p Music Video download Little Mix - Little Me 1080p Music Video
Video
English
74.7 MB
4.9
/images/5/1/little-mix-little-me-1080p-music-video-.jpg
Jason Derulo - The Other Side 1080p Music Video download Jason Derulo - The Other Side 1080p Music Video
Video
English
128.0 MB
4.9
/images/5/3/jason-derulo-the-other-side-1080p-music-video-.jpg
INNA - Wow 1080p Music Video download INNA - Wow 1080p Music Video
Video
English
152.3 MB
4.0
/images/noimage.jpg
Wiz Khalifa Ft Akon - Let It Go 1080p Music Video download Wiz Khalifa Ft Akon - Let It Go 1080p Music Video
Video
English
117.5 MB
4.2
/images/5/6/wiz-khalifa-ft-akon-let-it-go-1080p-music-video-.jpg
Stromae - Papaoutai 1080p Music Video download Stromae - Papaoutai 1080p Music Video
Video
French
83.4 MB
4.5
/images/5/3/stromae-papaoutai-1080p-music-video-.jpg
Passenger - Let Her Go 1080p Music Video download Passenger - Let Her Go 1080p Music Video
Video
English
86.7 MB
4.2
/images/5/0/passenger-let-her-go-1080p-music-video-.jpg
Jason Derulo - Marry Me 1080p Music Video download Jason Derulo - Marry Me 1080p Music Video
Video
English
101.0 MB
4.0
/images/5/9/jason-derulo-marry-me-1080p-music-video-.jpg