Files 42316
» » Akon Lonely -=kaminey659=- 480p
Language: English
Size: 25.3 MB
Votes: 254
Downloaded: 36
Category: Video
Format: MP3, FLAC
4.1

File list

  • Akon - Lonely (480p)-=kaminey659=- {Team659RG} XviD.avi (25.0 MB)
  • Akon - Lonely (480p)-=kaminey659=- {Team659RG} XviD.jpg (249.3 KB)
  • Cover.jpg (11.7 KB)
  • Akon - Lonely (480p)-=kaminey659=- {Team659RG} XviD..nfo (7.9 KB)
  • Lyrics.txt (2.7 KB)

50+ видео Воспроизвести все Микс – Akon - Lonely (Offiical Video)YouTube. Невероятное кино про пропавший отряд - Туман @ Военные фильмы 2019 новинки - Продолжительность: 2:27:23 Бойцовское Время Recommended for you. 2:27:23.

Uploaded By kaminey659.

Lonely Lyrics: Los Angeles, give it up one more time for Akon! /. .

Lonely Lyrics: Los Angeles, give it up one more time for Akon!, Lonely, I'm Mr. Lonely, I have nobody for my own, Oh, I'm so lonely, I'm Mr. Lonely, I'm Mr. Lonely, I have nobody for my ow. Can't believe I had a girl like you And I just let you walk right out of my life After all I put you through You still stuck around and stayed by my side What really hurt me is I broke your heart Baby, you a good girl and I had no right I really wanna make things right ‘. Cause without you in my life, girl, I'm so.

Akon 002 Akon - Lonely (old version). Akon & Lonely Island on SNL I just have sex. 02:48. play) (pause) (download) (fb) (vk) (tw).

Come and download akon lonely absolutely for free. Akon Lonely (480p) - kaminey659 - {Team659RG} Posted by kaminey659 in Music Video. 0. Lonely Island - I Just Had Sex Ft Akon HD 720P NimitMak SilverRG Posted by Nimitmak in Music Video.

Lonely" (also known as "Mr. Lonely") is a song by American singer and rapper Akon; it appears on his debut album, Trouble. The single was released in 2005 and was his first worldwide hit. It reached number one in several countries, including in the United Kingdom and Germany (where it stayed there for eight weeks), and Australia.

Akon Lonely (480p) - kaminey659 - {Team659RG} video. Best Of AKON-18-Music Videos.

Age: 1d 3d 7d 1m Adult: on off Quality: any verified. 362 Torrents (. 01s). Akon Lonely (480p) - kaminey659 - {Team659RG} video. MATrip video movie hd.

Video ID : 0 Format : xvid Codec ID : xvid Duration : 4mn 24s Bit rate : 652 Kbps Width : 640 pixels Height : 480 pixels Display aspect ratio : 4:3 .

Gropus Members: kaminey659 (uploader) Jamesbond (Ripper) kel!b (Supllier A/V).

Akon - Lonely Parody. Current track: Akon - Lonely ParodyAkon - Lonely Parody. Drop your files here. There was a problem playing this track.

jpg12 KB. Akon - Lonely (480p)- kaminey659 - {Team659RG} XviDnfo8 KB. Lyrics. You cannot download any of those files from here. roddy ricch 2s, DS1-MK3 1s, PornHub 2s, once upon a time in hollywood 2s, 하늘보리녀 국산 2s, guliver travels 0s, blacked xxx 1s, 2019 movies hindi 0s, antivirus 0s, Вета Жданова Светлана Лиси� 0s. 02s.


Code:


Format : AVI
Format/Info : Audio Video Interleave
File size : 25.0 MiB
Duration : 4mn 25s
Overall bit rate : 791 Kbps
Writing application : Lavf52.23.1
Video
ID : 0
Format : xvid
Codec ID : xvid
Duration : 4mn 24s
Bit rate : 652 Kbps
Width : 640 pixels
Height : 480 pixels
Display aspect ratio : 4:3
Frame rate : 23.976 fps
Bits/(Pixel*Frame) : 0.089
Stream size : 20.6 MiB (82%)
Audio
ID : 1
Format : MPEG Audio
Format version : Version 1
Format profile : Layer 2
Codec ID : 50
Duration : 4mn 25s
Bit rate mode : Constant
Bit rate : 128 Kbps
Channel(s) : 2 channels
Sampling rate : 44.1 KHz
Compression mode : Lossy
Stream size : 4.05 MiB (16%)
Alignment : Aligned on interleaves
Interleave, duration : 26 ms (0.63 video frame)

Ripper Note : SEED UNTIL THE RATIO IS 1:1
Seed until BLEED
Lyrics | Yes (.txt)
WE Love ET As Well
Sorry Guyz NotTo upload MJ Ghosts
I promise The next Upload Will Be That only
Enjoy :D!
Gropus Members:
kaminey659 (uploader)
Jamesbond (Ripper)
kel!b (Supllier A/V)



We Respect You : Noir , SureNdra , THRG , ETRG , LKRG , Legend , [NoFS] ,TeamDDR , SaM , Hector , Blackjesus , 3Li , iNK
And All P2P Sharing Group And People !

Code:


###################################################################
##Thank you To Download from Team659RG Keep Seeding !!!!!!!!!!!!###
###################################################################
###################################################################
##Thank you To Download from Team659RG Keep Seeding!!!!!!!!!!!!!###
###################################################################
Related music:
Flo Rida ft Nelly Furtado - Jump Official Music Video download Flo Rida ft Nelly Furtado - Jump Official Music Video
Video
English
83.1 MB
4.3
/images/5/8/flo-rida-ft-nelly-furtado-jump-official-music-video-.jpg
Anna Lesko feat Gilberto - Go Crazy HDRip 2012-MFA download Anna Lesko feat Gilberto - Go Crazy HDRip 2012-MFA
Video
English
51.6 MB
4.8
/images/5/3/anna-lesko-feat-gilberto-go-crazy-hdrip-2012-mfa.jpg
Mims - This is Why i am hot 1080p download Mims - This is Why i am hot 1080p
Video
English
268.3 MB
4.7
/images/5/4/mims-this-is-why-i-am-hot-1080p.jpg
Akcent feat Sandra N - I'm Sorry HDRip 2012-MFA download Akcent feat Sandra N - I'm Sorry HDRip 2012-MFA
Video
English
38.7 MB
4.2
/images/5/4/akcent-feat-sandra-n-i27m-sorry-hdrip-2012-mfa.jpg
Connect-R - Vara nu dorm 2012-MFA download Connect-R - Vara nu dorm 2012-MFA
Video
English
141.6 MB
4.5
/images/5/1/connect-r-vara-nu-dorm-2012-mfa.jpg
Michael Jackson - Smooth Criminal -=kel!b=- Team659RG download Michael Jackson - Smooth Criminal -=kel!b=- Team659RG
Video
English
108.6 MB
4.3
/images/5/9/michael-jackson-smooth-criminal-3dkel21b3d-team659rg.jpg
My Dil Goes Mmmm - Salaam Namaste UJ.rip 2005 download My Dil Goes Mmmm - Salaam Namaste UJ.rip 2005
Video
Hindi
223.6 MB
4.1
/images/5/6/my-dil-goes-mmmm-salaam-namaste-ujrip-2005.jpg
Kamelia - Prima oara 2012-MFA Official Video download Kamelia - Prima oara 2012-MFA Official Video
Video
English
57.7 MB
4.5
/images/5/1/kamelia-prima-oara-2012-mfa-official-video.jpg