Files 42316
» » Flo Rida ft Nelly Furtado - Jump Official Music Video
Language: English
Size: 83.1 MB
Votes: 047
Downloaded: 42
Category: Video
Format: MP3, FLAC
4.3

File list

  • File Info.txt (2.6 KB)
  • Flo_Rida_ft._Nelly_Furtado_-_Jump.avi (83.1 MB)
  • Shared By Sbyky.txt (0.0 KB)
  • Torrent downloaded from Demonoid.me.txt (0.0 KB)

Flo Rida, Nelly Furtado. When I say jump, you say how high I ain’t never seen nobody, how they get so high Like a bird, like a plane, this party got me insane This party got me insane So jump jump jump jump

Flo Rida, Nelly Furtado. When I say jump, you say how high I ain’t never seen nobody, how they get so high Like a bird, like a plane, this party got me insane This party got me insane So jump jump jump jump. Now I’m gon take it to the roof Everybody with me got they own parachute You ain’t scared of heights when you sippin on Goose Party all night like I’m flyin Jet Blue You ain’t never seen nobody get this loose Shawty actin naughty with her body, what it do Jump to this man, bump.

Nelly Furtado – Jump (Sunfreakz Club Mix).

nelly furtado – jump ost step up. 2:59. Nelly Furtado – Jump (Sunfreakz Club Mix). Flo Rida ft Nelly Furtado – Jump. Flo Rida – Jump Feat. Nelly Furtado (Step Up 3D). 2:41. Flo Rida ft Nelly Furtado – Jump (Disco Fries Remix). Flo Rida ft Nelly Furtado – Jump (Funky Mix).

Jump" is the fourth official single taken from Flo Rida's second album . Nelly Furtado makes an appearance on the song with an upbeat hook. Flo-Rida said: "I used a whole different delivery on this one. We're talking about different situations to get people hype in the club. Jump!' Whether you're an athlete running in the stadium or you're in the club.

Follow Flo Rida and others on SoundCloud.


General
Name : Flo_Rida_ft._Nelly_Furtado_-_Jump.avi
Format : AVI
Format/Info : Audio Video Interleave
File size : 83.1 MiB
Duration : 3mn 17s
Overall bit rate : 3 536 Kbps
Video
ID : 0
Format : MPEG-4 Visual
Format profile : Advanced [email protected]
Format settings, BVOP : 2
Format settings, QPel : No
Format settings, GMC : No warppoints
Format settings, Matrix : Default (H.263)
Muxing mode : Packed bitstream
Codec ID : XVID
Codec ID/Hint : XviD
Duration : 3mn 17s
Bit rate : 3 332 Kbps
Width : 1 280 pixels
Height : 720 pixels
Display aspect ratio : 16:9
Frame rate : 30.000 fps
Color space : YUV
Chroma subsampling : 4:2:0
Bit depth : 8 bits
Scan type : Progressive
Compression mode : Lossy
Bits/(Pixel*Frame) : 0.121
Stream size : 78.3 MiB (94%)
Writing library : XviD 1.2.1 (UTC 2008-12-04)
Audio
ID : 1
Format : MPEG Audio
Format version : Version 1
Format profile : Layer 3
Codec ID : 55
Codec ID/Hint : MP3
Duration : 3mn 17s
Bit rate mode : Constant
Bit rate : 192 Kbps
Channel(s) : 2 channels
Sampling rate : 44.1 KHz
Compression mode : Lossy
Delay relative to video : 26ms
Stream size : 4.51 MiB (5%)
Alignment : Split accross interleaves
Interleave, duration : 33 ms (1.00 video frame)
Title : Audio Stream
Writing library : LAME3.92

Related music:
Anna Lesko feat Gilberto - Go Crazy HDRip 2012-MFA download Anna Lesko feat Gilberto - Go Crazy HDRip 2012-MFA
Video
English
51.6 MB
4.8
/images/5/3/anna-lesko-feat-gilberto-go-crazy-hdrip-2012-mfa.jpg
Mims - This is Why i am hot 1080p download Mims - This is Why i am hot 1080p
Video
English
268.3 MB
4.7
/images/5/4/mims-this-is-why-i-am-hot-1080p.jpg
Akcent feat Sandra N - I'm Sorry HDRip 2012-MFA download Akcent feat Sandra N - I'm Sorry HDRip 2012-MFA
Video
English
38.7 MB
4.2
/images/5/4/akcent-feat-sandra-n-i27m-sorry-hdrip-2012-mfa.jpg
Connect-R - Vara nu dorm 2012-MFA download Connect-R - Vara nu dorm 2012-MFA
Video
English
141.6 MB
4.5
/images/5/1/connect-r-vara-nu-dorm-2012-mfa.jpg
VJ MAGRAO 90s Megamix DJ DVDRip download VJ MAGRAO 90s Megamix DJ DVDRip
DVD
English
1.4 GB
4.6
/images/5/8/vj-magrao-90s-megamix-dj-dvdrip.jpg
Lady Gaga - Judas - Xclusive - D$R 2011 720p-HD download Lady Gaga - Judas - Xclusive - D$R 2011 720p-HD
Video
English
115.4 MB
4.7
/images/5/5/lady-gaga-judas-xclusive-d24r-2011-720p-hd.jpg
Kamelia - Prima oara 2012-MFA Official Video download Kamelia - Prima oara 2012-MFA Official Video
Video
English
57.7 MB
4.5
/images/5/1/kamelia-prima-oara-2012-mfa-official-video.jpg
Miley Cyrus - Who Owns My Heart chitra.dmj download Miley Cyrus - Who Owns My Heart chitra.dmj
Video
English
24.9 MB
4.1
/images/5/4/miley-cyrus-who-owns-my-heart-chitradmj.jpg