Files 42316
» » Fashion Waley Babu - Ft Goodshah & BADSHAH - Team truHD HEVC
Language: Hindi
Size: 37.8 MB
Votes: 322
Downloaded: 35
Category: Video
Format: MP3, FLAC
4.3

File list

  • Fashion Waley Babu - Ft Goodshah & BADSHAH - Team truHD HEVC.mp4 (37.6 MB)
  • ScreenShot.jpg (240.8 KB)
  • Seeding From HostDzire.txt (0.1 KB)
  • Torrent Downloaded from Glodls.to.txt (0.2 KB)
  • Torrent Downloaded from kat.cr.txt (0.2 KB)

info t-Goodshah- HEVC Other.

info t-Goodshah- HEVC Other. to Fashion Waley Babu - Ft Goodshah & BADSHAH - Team truHD HEVC Music. com Fashion Waley Babu: Ft Goodshah & BADSHAH: Team TruHD HEVC Movies. am Fashion Waley Babu - Ft Goodshah and BADSHAH - Team truHD HEVC Movies. eu Fashion Waley Babu - Ft Goodshah & BADSHAH - Team truHD HEVC video.

Current track: Fashion Waley Babu Ft Goodshah BADSHAHFashion Waley Babu Ft Goodshah BADSHAH. Drop your files here.

DJ RamVideosFashion Waley Babu Ft Goodshah & BADSHAH. English (US) · Español · Português (Brasil) · Français (France) · Deutsch.

Singer's: Goodshah, BADSHAH. Album: Fashion Waley Babu. Genre: Punjabi Song, Bhangra, Rap, Released: 27-08-2015. Top 20 Songs By Goodshah, BADSHAH.

Video ID : 1 Format : HEVC Format/Info : High Efficiency Video Coding Codec ID : hvc1 Codec ID/Info : High . King Regards truHD HEVC Team.

Video ID : 1 Format : HEVC Format/Info : High Efficiency Video Coding Codec ID : hvc1 Codec ID/Info : High Efficiency Video Coding Duration : 3mn 50s Bit rate : 1 170 Kbps Maximum bit rate : 3 729 Kbps Width : 1 920 pixels Height : 1 080 pixels Display aspect ratio : 16:9 Frame rate mode : Constant Frame rate : 2. 00 fps Bits/(.

Videos genre bollywood. Fashion Waley Babu - Ft Goodshah & BADSHAH. At PHONEKY Free Video Service, you can download or play mobile videos and movie clips of different genres, from Music and Sports to the Cars and Funny videos. NEW. 4. 2. Video ID: 19368. To see the Top 10 best videos, just sort videos by popularity.

Wakhra Swag - Official Video - Navv Inder feat. Without You (Soch) - Vaibhav Saxena Ft. MB. YOLO Video Song - All Is Well - Dr. Zeus - Full.

New version of Reloaded Dj Waley Babu as 'Fashion Wale Babu'. Check it out ! This track was tagged with the following keywords: Other.

Fashion Waley Babu - Ft Goodshah & BADSHAH - Team truHD HEVC



Source: WEB-DL

Encoder: truHD HEVC Encoding Team


Encoded File Info:
General
Format                                   : MPEG-4
Format profile                           : Base Media
Codec ID                                 : iso4
File size                                : 37.6 MiB
Duration                                 : 3mn 50s
Overall bit rate                         : 1 365 Kbps
Encoded date                             : UTC 2015-09-07 16:34:15
Tagged date                              : UTC 2015-09-07 16:34:15
Video
ID                                       : 1
Format                                   : HEVC
Format/Info                              : High Efficiency Video Coding
Codec ID                                 : hvc1
Codec ID/Info                            : High Efficiency Video Coding
Duration                                 : 3mn 50s
Bit rate                                 : 1 170 Kbps
Maximum bit rate                         : 3 729 Kbps
Width                                    : 1 920 pixels
Height                                   : 1 080 pixels
Display aspect ratio                     : 16:9
Frame rate mode                          : Constant
Frame rate                               : 25.000 fps
Bits/(Pixel*Frame)                       : 0.023
Stream size                              : 32.2 MiB (86%)
Title                                    : Video
Encoded date                             : UTC 2015-09-07 16:34:15
Tagged date                              : UTC 2015-09-07 16:34:20
Audio
ID                                       : 2
Format                                   : AC-3
Format/Info                              : Audio Coding 3
Mode extension                           : CM (complete main)
Format settings, Endianness              : Big
Codec ID                                 : ac-3
Duration                                 : 3mn 50s
Bit rate mode                            : Constant
Bit rate                                 : 192 Kbps
Maximum bit rate                         : 201 Kbps
Channel(s)                               : 6 channels
Channel positions                        : Front: L C R, Side: L R, LFE
Sampling rate                            : 44.1 KHz
Bit depth                                : 16 bits
Compression mode                         : Lossy
Stream size                              : 5.28 MiB (14%)
Title                                    :
Encoded date                             : UTC 2015-09-07 16:34:18
Tagged date                              : UTC 2015-09-07 16:34:20

ScreenShots:

Like Us On FB And Request Accepted @ FB Page Link
KickAssTorrents: KAT Profile
GloTorrents: GloTorrent Profile
ThePirateBay: ThePirateBay Profile
Torrents: Profile


Note: All Videos Uploaded By Me Are For Preview Purpose. If You Like IT,GoogleIT And Buy IT - Thanks

Seeding From High Speed Seedbox


King Regards
truHD HEVC Team
Share Among Friends And Relatives:

Related music:
Khoya Khoya 1080p Full HD Song - Hero - Team truHD HEVC download Khoya Khoya 1080p Full HD Song - Hero - Team truHD HEVC
Video
Hindi
28.8 MB
4.5
/images/5/0/khoya-khoya-1080p-full-hd-song-hero-team-truhd-hevc.jpg
Roshan Prince Guzarishaan Gurmeet Singh - Full 1080p HD - Team truHD HEVC Full Video download Roshan Prince Guzarishaan Gurmeet Singh - Full 1080p HD - Team truHD HEVC Full Video
Video
Hindi
69.7 MB
4.4
/images/5/8/roshan-prince-guzarishaan-gurmeet-singh-full-1080p-hd-team-truhd-hevc-full-video.jpg
One Dream - Babbal Rai & Preet Hundal - Full HD 1080p - Team truHD HEVC download One Dream - Babbal Rai & Preet Hundal - Full HD 1080p - Team truHD HEVC
Video
Hindi
49.3 MB
4.5
/images/5/6/one-dream-babbal-rai-26-preet-hundal-full-hd-1080p-team-truhd-hevc.jpg
Gulaabo Video Song From Shaandaar - Full HD 1080p - Team truHD HEVC download Gulaabo Video Song From Shaandaar - Full HD 1080p - Team truHD HEVC
Video
Hindi
48.2 MB
4.8
/images/5/5/gulaabo-video-song-from-shaandaar-c2a0full-hd-1080p-team-truhd-hevc.jpg
Naina Tose Lage Video Song By Rahat Fateh Ali - Full HD 1080p - Team truHD HEVC download Naina Tose Lage Video Song By Rahat Fateh Ali - Full HD 1080p - Team truHD HEVC
Video
Hindi
14.2 MB
4.0
/images/5/0/naina-tose-lage-video-song-by-rahat-fateh-ali-full-hd-1080p-team-truhd-hevc.jpg
Cinema Dekhe Mamma Video Song Singh Is Bliing - Full HD 1080p - Team truHD HEVC download Cinema Dekhe Mamma Video Song Singh Is Bliing - Full HD 1080p - Team truHD HEVC
Video
Hindi
36.8 MB
4.7
/images/5/4/cinema-dekhe-mamma-video-song-singh-is-bliing-full-hd-1080p-team-truhd-hevc.jpg
Ishq Chadha Hai Video Song By Darshan Raval - Xclusive Full HD - Team truHD HEVC download Ishq Chadha Hai Video Song By Darshan Raval - Xclusive Full HD - Team truHD HEVC
Video
Hindi
23.4 MB
4.0
/images/5/2/ishq-chadha-hai-video-song-by-darshan-raval-xclusive-full-hd-team-truhd-hevc.jpg