Files 42316
» » Ellie Goulding-Goodness Gracious HDTV 720p-shadowCopy
Language: English
Size: 55.1 MB
Votes: 939
Downloaded: 32
Category: Video
Format: MP3, FLAC
4.3

File list

  • Ellie.Goulding-Goodness.Gracious.HDTV.720p-shadowCopy.mp4 (55.1 MB)
  • Ellie.Goulding-Goodness.Gracious.HDTV.720p-shadowCopy.nfo (3.8 KB)

Video ID : 1 Format : AVC Format/Info : Advanced Video Codec Format profile : [email protected]

Video ID : 1 Format : AVC Format/Info : Advanced Video Codec Format profile : [email protected] 1 Format settings, CABAC : Yes Format settings, ReFrames : 4 frames Codec ID : avc1 Codec ID/Info : Advanced Video Coding Duration : 3mn 42s Bit rate : 1 900 Kbps Width : 1 280 pixels Height : 720 pixels Display aspect ratio : 16:9 Frame rate mode : Constant Frame rate

Goodness Gracious" is a song by English singer and songwriter Ellie Goulding from Halcyon Days (2013), the reissue of her second studio album, Halcyon (2012).

Goodness Gracious" is a song by English singer and songwriter Ellie Goulding from Halcyon Days (2013), the reissue of her second studio album, Halcyon (2012). The song was written by Greg Kurstin, Goulding and Nate Ruess. It was released on 13 January 2014 as the third and final single from the reissue

Ellie Goulding - Goodness Gracious 1080p x264 AAC HD - BFAB P2PDL Posted by bfab in Music Video. 0. Goodness Gracious Me Reunion Special 720p HDTV x264-BARGE Posted by brasseur0ph in TV HD. 44. MB. brasseur0ph.

Ellie Goulding - Goodness Gracious 1080p x264 AAC HD - BFAB P2PDL Posted by bfab in Music Video.

Goodness Gracious Artist Ellie Goulding Director Kinga Burza Label Unknown; no label specified. Ellie Goulding - Goodness Gracious.

Ellie Goulding Goodness Gracious HDTV 720p ShadowCopy. 05 MB0. Ellie Goulding-Goodness Gracious HDTV 720p-shadowCopy. me Have Largest Bittorrent Database.

Ellie Goulding - Love Me Like You Do - NRJ Music Awards 2015 HDTV 1080p-TPF HDMania.

Forums Video Mania HD Live Performances . Ellie Goulding - Goodness Gracious - The Graham Norton Show - 28-02-2014 - 1080i. Discussion in 'HD Live Performances' started by Grasdubide, Mar 1, 2014. Ellie Goulding - Love Me Like You Do - NRJ Music Awards 2015 HDTV 1080p-TPF HDMania. ThePixelFarm, Sep 8, 2019 at 1:10 AM, in forum: HD Live Performances.



Ellie.Goulding-Goodness.Gracious.HDTV.720p-shadowCopy
Format : MPEG-4
Format profile : Base Media
Codec ID : isom
File size : 55.1 MiB
Duration : 3mn 42s
Overall bit rate : 2 073 Kbps
Writing application : Lavf54.63.104
Video
ID : 1
Format : AVC
Format/Info : Advanced Video Codec
Format profile : [email protected]
Format settings, CABAC : Yes
Format settings, ReFrames : 4 frames
Codec ID : avc1
Codec ID/Info : Advanced Video Coding
Duration : 3mn 42s
Bit rate : 1 900 Kbps
Width : 1 280 pixels
Height : 720 pixels
Display aspect ratio : 16:9
Frame rate mode : Constant
Frame rate : 25.000 fps
Color space : YUV
Chroma subsampling : 4:2:0
Bit depth : 8 bits
Scan type : Progressive
Bits/(Pixel*Frame) : 0.082
Stream size : 50.6 MiB (92%)
Writing library : x264 core 130 r2273 b3065e6
Encoding settings : cabac=1 / ref=3 / deblock=1:0:0 / analyse=0x3:0x113 / me=hex / subme=7 / psy=1 / psy_rd=1.00:0.00 / mixed_ref=1 / me_range=16 / chroma_me=1 / trellis=1 / 8x8dct=1 / cqm=0 / deadzone=21,11 / fast_pskip=1 / chroma_qp_offset=-2 / threads=4 / lookahead_threads=1 / sliced_threads=0 / nr=0 / decimate=1 / interlaced=0 / bluray_compat=0 / constrained_intra=0 / bframes=3 / b_pyramid=2 / b_adapt=1 / b_bias=0 / direct=1 / weightb=1 / open_gop=0 / weightp=2 / keyint=250 / keyint_min=25 / scenecut=40 / intra_refresh=0 / rc_lookahead=40 / rc=2pass / mbtree=1 / bitrate=1900 / ratetol=1.0 / qcomp=0.60 / qpmin=0 / qpmax=69 / qpstep=4 / cplxblur=20.0 / qblur=0.5 / vbv_maxrate=17500 / vbv_bufsize=17500 / nal_hrd=none / ip_ratio=1.40 / aq=1:1.00
Color primaries : BT.709
Transfer characteristics : BT.709
Matrix coefficients : BT.709
Audio
ID : 2
Format : AAC
Format/Info : Advanced Audio Codec
Format profile : LC
Codec ID : 40
Duration : 3mn 42s
Bit rate mode : Constant
Bit rate : 160 Kbps
Channel(s) : 2 channels
Channel positions : Front: L R
Sampling rate : 48.0 KHz
Compression mode : Lossy
Stream size : 4.25 MiB (8%)

Related music:
David Guetta ft Akon-Sexy Chick HDTV 1080p-shadowCopy download David Guetta ft Akon-Sexy Chick HDTV 1080p-shadowCopy
Video
English
113.7 MB
4.4
/images/5/5/david-guetta-ft-akon-sexy-chick-hdtv-1080p-shadowcopy.jpg
Gorgon City ft Mnek-Ready for your love-HDTV 1080p-shadowCopy download Gorgon City ft Mnek-Ready for your love-HDTV 1080p-shadowCopy
Video
English
110.1 MB
4.2
/images/5/0/gorgon-city-ft-mnek-ready-for-your-love-hdtv-1080p-shadowcopy.jpg
Gorgon City ft Mnek-Ready for your love-HDTV 720p-shadowCopy download Gorgon City ft Mnek-Ready for your love-HDTV 720p-shadowCopy
Video
English
63.0 MB
4.7
/images/5/2/gorgon-city-ft-mnek-ready-for-your-love-hdtv-720p-shadowcopy.jpg
Ellie Goulding - Goodness Gracious 720p Music Video download Ellie Goulding - Goodness Gracious 720p Music Video
Video
English
81.2 MB
4.3
/images/5/1/ellie-goulding-goodness-gracious-720p-music-video-.jpg
Selena Gomez-Slow Down HDTV 480p-shadowCopy download Selena Gomez-Slow Down HDTV 480p-shadowCopy
Video
English
34.0 MB
4.1
/images/5/1/selena-gomez-slow-down-hdtv-480p-shadowcopy.jpg
Calvin Harris ft Ellie Goulding-I Need Your Love HDTV 480p-shadowCopy download Calvin Harris ft Ellie Goulding-I Need Your Love HDTV 480p-shadowCopy
Video
English
30.5 MB
4.7
/images/5/6/calvin-harris-ft-ellie-goulding-i-need-your-love-hdtv-480p-shadowcopy.jpg
David Guetta ft Akon-Sexy Chick HDTV 480p-shadowCopy download David Guetta ft Akon-Sexy Chick HDTV 480p-shadowCopy
Video
English
34.0 MB
4.4
/images/5/0/david-guetta-ft-akon-sexy-chick-hdtv-480p-shadowcopy.jpg