Files 42316
» » The Band Perry - Done 720p Music Video
Language: English
Size: 37.0 MB
Votes: 068
Downloaded: 64
Category: Video
Format: MP3, FLAC
4.3

File list

  • The Band Perry - Done [Music Video] 720p [Sbyky].mp4 (37.0 MB)

The Band Perry - Better Dig Two (Official Video) - Продолжительность: 3:19 The . The band perry live done with intro must see h. .

Metallica - Nothing Else Matters (Official Music Video) - Продолжительность: 6:26 Fast Workers Recommended for you. 6:26

Metallica - Nothing Else Matters (Official Music Video) - Продолжительность: 6:26 Fast Workers Recommended for you. 6:26. TOP 10 HARDEST SONGS to sing in the Blind Auditions of The Voice - Продолжительность: 20:03 Best of The Voice Recommended for you.

C) 2013 Republic Nashville Records, a division of UMG Recordings, Inc.

com/thebandperry (C) 2013 Republic Nashville Records, a division of UMG Recordings, Inc.

Produced by Dann Huff.

The Band Perry is an American country music band composed of Kimberly Perry (lead vocals, rhythm guitar, piano) and her two brothers: Reid Perry (bass guitar, background vocals) and Neil Perry (mandolin, drums, accordion, background vocals). The Band Perry is an American country music band composed of Kimberly Perry (lead vocals, rhythm guitar, piano) and her two brothers: Reid Perry (bass guitar, background vocals) and Neil Perry (mandolin, drums, accordion, background vocals)

The Band Perry rock this "Patriot"-esque chess match of a video.

The Band Perry rock this "Patriot"-esque chess match of a video. Country Modern Country. Follow artists, discover new music, and personalize your music experience.


General
Complete name : The Band Perry - Done [Music Video] 720p [Sbyky].mp4
Format : MPEG-4
Format profile : Base Media / Version 2
Codec ID : mp42
File size : 37.0 MiB
Duration : 3mn 40s
Overall bit rate mode : Variable
Overall bit rate : 1 411 Kbps
Encoded date : UTC 2013-04-08 02:44:19
Tagged date : UTC 2013-04-08 02:44:19
Video
ID : 1
Format : AVC
Format/Info : Advanced Video Codec
Format profile : [email protected]
Format settings, CABAC : Yes
Format settings, ReFrames : 1 frame
Codec ID : avc1
Codec ID/Info : Advanced Video Coding
Duration : 3mn 40s
Bit rate : 1 216 Kbps
Maximum bit rate : 2 454 Kbps
Width : 1 280 pixels
Height : 720 pixels
Display aspect ratio : 16:9
Frame rate mode : Constant
Frame rate : 23.976 fps
Color space : YUV
Chroma subsampling : 4:2:0
Bit depth : 8 bits
Scan type : Progressive
Bits/(Pixel*Frame) : 0.055
Stream size : 31.9 MiB (86%)
Tagged date : UTC 2013-04-08 02:44:21
Audio
ID : 2
Format : AAC
Format/Info : Advanced Audio Codec
Format profile : LC
Codec ID : 40
Duration : 3mn 40s
Bit rate mode : Variable
Bit rate : 192 Kbps
Maximum bit rate : 204 Kbps
Channel(s) : 2 channels
Channel positions : Front: L R
Sampling rate : 44.1 KHz
Compression mode : Lossy
Stream size : 5.04 MiB (14%)
Title : IsoMedia File Produced by Google, 5-11-2011
Encoded date : UTC 2013-04-08 02:44:20
Tagged date : UTC 2013-04-08 02:44:21
Shared By Sbyky

Related music:
Emily Kinney - Kids 720p Music Video download Emily Kinney - Kids 720p Music Video
Video
English
60.5 MB
4.2
/images/5/3/emily-kinney-kids-720p-music-video-.jpg
Bon Jovi - Because We Can 720p Music Video download Bon Jovi - Because We Can 720p Music Video
Video
English
52.1 MB
4.7
/images/5/0/bon-jovi-because-we-can-720p-music-video-.jpg
Cher Lloyd Ft T I - I Wish 720p Music Video download Cher Lloyd Ft T I - I Wish 720p Music Video
Video
English
60.6 MB
4.3
/images/5/1/cher-lloyd-ft-t-i-i-wish-720p-music-video-.jpg
John Legend - All Of Me 720p Music Video download John Legend - All Of Me 720p Music Video
Video
English
62.7 MB
4.1
/images/5/4/john-legend-all-of-me-720p-music-video-.jpg
Taylor Swift - We Are Never Ever Getting Back Together 720p Music Video download Taylor Swift - We Are Never Ever Getting Back Together 720p Music Video
Video
English
61.4 MB
4.0
/images/5/0/taylor-swift-we-are-never-ever-getting-back-together-720p-music-video-.jpg
Stromae - Papaoutai 720p Music Video download Stromae - Papaoutai 720p Music Video
Video
French
41.8 MB
4.6
/images/5/0/stromae-papaoutai-720p-music-video-.jpg
Ke$ha - Dirty Love 720p Music Video download Ke$ha - Dirty Love 720p Music Video
Video
English
77.0 MB
4.1
/images/5/7/ke24ha-dirty-love-720p-music-video-.jpg
J Cole - Work Out 720p Music Video download J Cole - Work Out 720p Music Video
Video
English
79.9 MB
4.2
/images/5/9/j-cole-work-out-720p-music-video-.jpg
Little Mix - Little Me 720p Music Video download Little Mix - Little Me 720p Music Video
Video
English
37.9 MB
4.1
/images/5/5/little-mix-little-me-720p-music-video-.jpg