Files 42316
» » Waka Waka This Time for Africa With Subtitle [email protected] com-NIKHIL
Language: English
Size: 42.2 MB
Votes: 939
Downloaded: 31
Category: Video
Format: MP3, FLAC
4.5

File list

Uploaded By nikhilsweet. Waka Waka This Time for Africa With Subtitle ~~NIKHIL.

Uploaded By nikhilsweet. Feel free to leave one

Uploaded By nikhilsweet.

General Complete name : Waka Waka This Time for Africa Subtitle BY ~~NIKHIL

General Complete name : Waka Waka This Time for Africa Subtitle BY ~~NIKHIL. ripped and xtracted by - NIKHIL. thumbsup: Files: Waka Waka This Time for Africa Subtitle BY ~~NIKHIL.

Waka Waka This Time for Africa Subtitle BY ~~. You cannot download any of those files from here. title: Street Outlaws S07E11 3s, title: Out Lawyered 2s, bellator kickboxing 2s, CSI The Series Finale 1s, look at her now 1s, Drunk. 3 3s, The Nine Lives of Christmas 2s, techsmith camtasia 9 tutorial 1s, the walking dead s10e06. 1s, pc game suatuat 2s. 02s.

Cause this is Africa. Shakira - Waka Waka (This Time for Africa) (The Official 2010 FIFA World Cup™ Song). Tsamina mina, anawa ah ah. Tsamina mina. Tsamina mina, eh eh. Waka waka, eh eh. Tsamina mina zangalewa. En. Es. Ru. De. Fr. IT.

Tsamina mina zangalewa Anawa aa This time for Africa. Listen to your god This is our motto Your time to shine Don't wait in line Y vamos por todo. People are raising Their expectations Go on and feed them This is your moment No hesitations. Today’s your day I feel it You paved the way Believe it. If you get down Get up Oh o. hen you get down Get up eh e. samina mina zangalewa Anawa aa This time for Africa. Tsamina mina eh eh Waka Waka eh eh. Tsamina mina zangalewa Anawa aa.

Tsamina mina, eh eh Waka waka, eh eh Tsamina mina zangalewa This time for Africa. Listen to your God This is our motto Your time to shine, don't wait in line Y vamos por todo People are raising Their expectations Go on and feed them, this is your moment No hesitations. Today's your day, I feel it You paved the way, believe it If you get down get up, oh oh When you get down get up, eh eh Tsamina mina zangalewa This time for Africa. Tsamina mina, eh eh Waka waka, eh eh Tsamina mina zangalewa Anawa a a Tsamina.

WAKA WAKA This Time for Africa With Subtitle [email protected]~~NIKHIL



Format : DivX
Format/Info : Hack of AVI
File size : 42.2 MiB
Duration : 3mn 30s
Overall bit rate : 1 679 Kbps
Duration : 3mn 30s
Bit rate : 1 500 Kbps
Width : 720 pixels
Height : 576 pixels
Display aspect ratio : 5:4
Frame rate : 25.000 fps
Standard : PAL
Resolution : 8 bits
Colorimetry : 4:2:0
Scan type : Progressive
Bits/(Pixel*Frame) : 0.145
Stream size : 37.6 MiB (89%)
Title : Video
Writing library : DivX 2151
Audio
ID : 1
Format : MPEG Audio
Format version : Version 1
Format profile : Layer 3
Codec ID : 55
Codec ID/Hint : MP3
Duration : 3mn 30s
Bit rate mode : Constant
Bit rate : 160 Kbps
Channel(s) : 2 channels
Sampling rate : 48.0 KHz
Stream size : 4.02 MiB (10%)
Alignment : Split accross interleaves
Interleave, duration : 40 ms (1.00 video frame)
Interleave, preload duration : 500 ms
Title : Audio
Text
Format : DivX Subtitle
Codec ID : DXSB
Codec ID/Info : Subtitle in AVI from DivX networks
Width : 640 pixels
Height : 480 pixels
Resolution : 4 bits
Stream size : 250 KiB (1%)
Title : Subtitle

Related music:
Flo Rida ft Nelly Furtado - Jump Official Music Video download Flo Rida ft Nelly Furtado - Jump Official Music Video
Video
English
83.1 MB
4.3
/images/5/8/flo-rida-ft-nelly-furtado-jump-official-music-video-.jpg
Anna Lesko feat Gilberto - Go Crazy HDRip 2012-MFA download Anna Lesko feat Gilberto - Go Crazy HDRip 2012-MFA
Video
English
51.6 MB
4.8
/images/5/3/anna-lesko-feat-gilberto-go-crazy-hdrip-2012-mfa.jpg
Mims - This is Why i am hot 1080p download Mims - This is Why i am hot 1080p
Video
English
268.3 MB
4.7
/images/5/4/mims-this-is-why-i-am-hot-1080p.jpg
Akcent feat Sandra N - I'm Sorry HDRip 2012-MFA download Akcent feat Sandra N - I'm Sorry HDRip 2012-MFA
Video
English
38.7 MB
4.2
/images/5/4/akcent-feat-sandra-n-i27m-sorry-hdrip-2012-mfa.jpg
Connect-R - Vara nu dorm 2012-MFA download Connect-R - Vara nu dorm 2012-MFA
Video
English
141.6 MB
4.5
/images/5/1/connect-r-vara-nu-dorm-2012-mfa.jpg
Kanye West Feat Rihanna - All Of The Lights 1080p Music Video download Kanye West Feat Rihanna - All Of The Lights 1080p Music Video
Video
English
128.2 MB
4.5
/images/5/4/kanye-west-feat-rihanna-all-of-the-lights-1080p-music-video-.jpg
Kamelia - Prima oara 2012-MFA Official Video download Kamelia - Prima oara 2012-MFA Official Video
Video
English
57.7 MB
4.5
/images/5/1/kamelia-prima-oara-2012-mfa-official-video.jpg
Waka Flocka ft Roscoe Dash and Wale - No Hands KingPinVideos download Waka Flocka ft Roscoe Dash and Wale - No Hands KingPinVideos
Video
English
94.4 MB
4.6
/images/5/6/waka-flocka-ft-roscoe-dash-and-wale-no-hands-kingpinvideos.jpg