Files 42316
» » Housefull 2010 720p BluRay HD - I Dont Know What To Do mkv -
Language: Hindi
Size: 55.6 MB
Votes: 748
Downloaded: 25
Category: Video
Format: MP3, FLAC
4.1

File list

  • Housefull 2010 720p BluRay nHD x264 NhaNc3-I Dont Know What To Do.mkv (55.6 MB)


General
Unique ID : 211709425711061246045417810980584073970 (0x9F45C0935D2D591E9168AB25D84CAAF2)
Complete name : F:VideosHousefull 2010 720p BluRay nHD x264 NhaNc3-I Dont Know What To Do.mkv
Format : Matroska
Format version : Version 2
File size : 55.6 MiB
Duration : 3mn 16s
Overall bit rate : 2 378 Kbps
Encoded date : UTC 2011-02-03 11:49:21
Writing application : mkvmerge v4.4.0 ('Die Wiederkehr') built on Oct 31 2010 21:52:48
Writing library : libebml v1.0.0 + libmatroska v1.0.0
Video
ID : 1
Format : AVC
Format/Info : Advanced Video Codec
Format profile : [email protected]
Format settings, CABAC : Yes
Format settings, ReFrames : 7 frames
Muxing mode : Header stripping
Codec ID : V_MPEG4/ISO/AVC
Duration : 3mn 16s
Bit rate : 2 010 Kbps
Width : 1 280 pixels
Height : 544 pixels
Display aspect ratio : 2.35:1
Frame rate mode : Constant
Frame rate : 23.976 fps
Color space : YUV
Chroma subsampling : 4:2:0
Bit depth : 8 bits
Scan type : Progressive
Bits/(Pixel*Frame) : 0.120
Stream size : 47.0 MiB (85%)
Language : English
Default : Yes
Forced : No
Audio
ID : 2
Format : AC-3
Format/Info : Audio Coding 3
Mode extension : CM (complete main)
Format settings, Endianness : Big
Muxing mode : Header stripping
Codec ID : A_AC3
Duration : 3mn 16s
Bit rate mode : Constant
Bit rate : 320 Kbps
Channel(s) : 6 channels
Channel positions : Front: L C R, Side: L R, LFE
Sampling rate : 48.0 KHz
Bit depth : 16 bits
Compression mode : Lossy
Stream size : 7.49 MiB (13%)
Language : Hindi
Default : Yes
Forced : No
Text
ID : 3
Format : ASS
Codec ID : S_TEXT/ASS
Codec ID/Info : Advanced Sub Station Alpha
Compression mode : Lossless
Language : English
Default : Yes
Forced : No

Related music:
Edward Maya & Mia Martina - Stereo Love 720p Music Video download Edward Maya & Mia Martina - Stereo Love 720p Music Video
Video
English
88.5 MB
4.6
/images/5/8/edward-maya-26-mia-martina-stereo-love-720p-music-video-.jpg
Snoop Lion ft Cori B & Drake - No Guns Allowed 720p download Snoop Lion ft Cori B & Drake - No Guns Allowed 720p
Video
English
31.8 MB
4.6
/images/5/9/snoop-lion-ft-cori-b-26-drake-no-guns-allowed-720p.jpg
The Lonely Island - YOLO feat Adam Levine & Kendrick Lamar 720p-subtitled- gWc download The Lonely Island - YOLO feat Adam Levine & Kendrick Lamar 720p-subtitled- gWc
Video
English
20.6 MB
4.6
/images/5/5/the-lonely-island-yolo-feat-adam-levine-26-kendrick-lamar-720p-subtitled-gwc.jpg
We Be Burnin' - Sean Paul 720p download We Be Burnin' - Sean Paul 720p
Video
English
61.5 MB
4.2
/images/5/6/we-be-burnin27-sean-paul-720p.jpg
Inna ft Carla's Dreams PUHOI -subtitled-720p 10BiT gWc download Inna ft Carla's Dreams PUHOI -subtitled-720p 10BiT gWc
Video
Romanian
24.9 MB
4.4
/images/5/5/inna-ft-carla27s-dreams-puhoi-subtitled-720p-10bit-gwc.jpg
Shakira Ft Dizzee Rascal - Loca 720p Music Video download Shakira Ft Dizzee Rascal - Loca 720p Music Video
Video
English
73.9 MB
4.7
/images/5/9/shakira-ft-dizzee-rascal-loca-720p-music-video-.jpg
Taylor Swift-White Horse720p By Abhinav4u download Taylor Swift-White Horse720p By Abhinav4u
Album
English
154.6 MB
4.4
/images/5/5/taylor-swift-white-horse720p-by-abhinav4u.jpg
Little Mix - Little Me 720p Music Video download Little Mix - Little Me 720p Music Video
Video
English
37.9 MB
4.1
/images/5/5/little-mix-little-me-720p-music-video-.jpg
Edward Maya & Vika Jigulina - Stereo Love 720p Music Video download Edward Maya & Vika Jigulina - Stereo Love 720p Music Video
Video
English
48.5 MB
4.9
/images/5/5/edward-maya-26-vika-jigulina-stereo-love-720p-music-video-.jpg