Files 42316
» » Kim Cesarion - Undressed 720p Music Video
Language: English
Size: 32.9 MB
Votes: 254
Downloaded: 81
Category: Video
Format: MP3, FLAC
4.4

File list

  • Kim Cesarion - Undressed [Music Video] 720p [Sbyky].MP4 (32.9 MB)

Music video by Kim Cesarion performing Undressed. C) 2013 Aristotracks AB under exclusive license to Sony Music Entertainment UK Limited.

Music video by Kim Cesarion performing Undressed.

Kim Cesarion - Undressed. Guy Sebastian - Like A Drum (OFFICIAL MUSIC VIDEO HD). ATB - When It Ends It Starts Again (Original Instrumental Version). The best music. Mario Bischin - Macarena. La-Le-Lu - Undressed Undressed, 2014 03:43. Granite Karaoke - Undressed Undressed, 2014 03:43. Freshhead Karaoke - Undressed Undressed, 2014 03:43. Platinum Edge Karaoke - Undressed Undressed, 2014 03:43. Chart hitz - Undressed Undressed - Tribute to Kim Cesarion, 2014 03:43. Pop legends - Undressed Undressed - Tribute to Kim Cesarion, 2014 03:43. This Is Popstarz - Undressed Undressed - Tribute to Kim Cesarion, 2014 03:43.

Music by: Gary Clark; Arnthor Birgisson; Lukasz Duchnowski; Kim Cesarion. P): Sony Music Entertainment. Format: Pop. Parameters: 15/00:03:43/C. Lyrics by: Gary Clark; Arnthor Birgisson; Lukasz Duchnowski; Kim Cesarion. C): Sony Music Entertainment. Music video by Kim Cesarion performing Undressed. views 616. Repetition on the radio 35. play. Kim Cesarion Undressed.

Undressed Lyrics Undressed is the debut single of the oupe singer songwriter Kim Cesarion, the single was released on 22 March 2013 as the lead single from hi. .

I feel hazy Why is everything black and white? I feel dizzy Like my fucking head is full of dynamite Jump in my Mercedes But it isn't quite driving right. I don't get it, I'm not drunk A million people in the place and there you are And I was like. Undressed is the debut single of the oupe singer songwriter Kim Cesarion, the single was released on 22 March 2013 as the lead single from his debut studio album. The single co-written by him, Arnthor Birgisson, Gary Clark and Lukasz Duchnowski was released in Sweden by Aristotracks and distributed by Sony Music in Sweden and other Scandinavian countries and Australia.


General
Complete name : Kim Cesarion - Undressed [Music Video] 720p [Sbyky].MP4
Format : MPEG-4
Format profile : Base Media
Codec ID : isom
File size : 32.9 MiB
Duration : 3mn 53s
Overall bit rate mode : Variable
Overall bit rate : 1 183 Kbps
Encoded date : UTC 2014-01-07 09:33:56
Tagged date : UTC 2014-01-07 09:33:56
Video
ID : 1
Format : AVC
Format/Info : Advanced Video Codec
Format profile : [email protected]
Format settings, CABAC : Yes
Format settings, ReFrames : 3 frames
Codec ID : avc1
Codec ID/Info : Advanced Video Coding
Duration : 3mn 53s
Bit rate : 1 054 Kbps
Width : 1 280 pixels
Height : 720 pixels
Display aspect ratio : 16:9
Frame rate mode : Constant
Frame rate : 25.000 fps
Color space : YUV
Chroma subsampling : 4:2:0
Bit depth : 8 bits
Scan type : Progressive
Bits/(Pixel*Frame) : 0.046
Stream size : 29.3 MiB (89%)
Encoded date : UTC 2014-01-07 09:33:56
Tagged date : UTC 2014-01-07 09:33:56
Audio
ID : 2
Format : AAC
Format/Info : Advanced Audio Codec
Format profile : LC
Codec ID : 40
Duration : 3mn 53s
Bit rate mode : Variable
Bit rate : 126 Kbps
Channel(s) : 2 channels
Channel positions : Front: L R
Sampling rate : 44.1 KHz
Compression mode : Lossy
Stream size : 3.50 MiB (11%)
Encoded date : UTC 2014-01-07 09:31:07
Tagged date : UTC 2014-01-07 09:31:07
Shared By Sbyky

Related music:
Blue - Break My Heart 720p Music Video download Blue - Break My Heart 720p Music Video
Video
English
54.4 MB
4.1
/images/5/1/blue-break-my-heart-720p-music-video-.jpg
Fall Out Boy - Where Did The Party Go 720p Music Video download Fall Out Boy - Where Did The Party Go 720p Music Video
Video
English
46.7 MB
4.9
/images/5/7/fall-out-boy-where-did-the-party-go-720p-music-video-.jpg
Coldplay - Magic 720p Music Video download Coldplay - Magic 720p Music Video
Video
English
78.4 MB
4.2
/images/5/4/coldplay-magic-720p-music-video-.jpg
Pharrell Williams - Happy 720p Music Video download Pharrell Williams - Happy 720p Music Video
Video
English
34.0 MB
4.3
/images/5/6/pharrell-williams-happy-720p-music-video-.jpg
Rico Love - Bitches Be Like 720p Music Video download Rico Love - Bitches Be Like 720p Music Video
Video
English
40.8 MB
4.5
/images/5/0/rico-love-bitches-be-like-720p-music-video-.jpg
Arash Ft Helena - One Day 720p Music Video download Arash Ft Helena - One Day 720p Music Video
Video
English
43.6 MB
4.5
/images/5/3/arash-ft-helena-one-day-720p-music-video-.jpg
Neon Jungle - Welcome To The Jungle 720p Music Video download Neon Jungle - Welcome To The Jungle 720p Music Video
Video
English
52.1 MB
4.9
/images/5/9/neon-jungle-welcome-to-the-jungle-720p-music-video-.jpg