Files 42316
» » Billy Currington - Hey Girl 1080p Music Video
Language: English
Size: 78.5 MB
Votes: 776
Downloaded: 61
Category: Video
Format: MP3, FLAC
4.7

File list

  • Billy Currington - Hey Girl [Music Video] 1080p [Sbyky].mp4 (78.5 MB)

Hey Girl (Album Version). Авторы текста и музыки. Rhett Akins, Ashley Gorley, Chris DeStefano.

Hey Girl (Album Version).

Billy Currington - Hey Girl (Behind The Scenes) - Продолжительность: 3:09 Billy .

10 most viewed america's got talent auditions!

Asian music (11) Bachata (10) Baladas (9) Banda (9) Baroque (5) Bass (55) Bass house (48) Bengali (1) Bhangra (2) Big band (6) Big . Billy Currington - Hey Girl.

Asian music (11) Bachata (10) Baladas (9) Banda (9) Baroque (5) Bass (55) Bass house (48) Bengali (1) Bhangra (2) Big band (6) Big beat (3) Bluegrass (17) Blues (340) Boleros (2) Bollywood (51) Breakbeat (14) Britpop (9) Business (4) Business news (3) Caribbean (36) Celtic (15) Children (29) Chill (132) Chillout (97) Chinese (3) Christian (591) Christmas (41) Classic (688) Classic hits.

Hey Girl (Billy Currington) Artist Billy Currington Director Kristin Barlowe Label Unknown; n. .

Music video · 2013 · 3:27 min Free with Apple Music subscription. Get Apple Music on iOS, Android, Mac, and Windows. 2013 Mercury Records, a Division of UMG Recordings, Inc. View on Apple Music.

Hey girl, what you think girl You look a little thirsty let me go get you something to drink . Ooh, baby you're still standing here I guess you must like what you hear Hey girl, what you say girl About you and me getting away girl.

Ooh, baby you're still standing here I guess you must like what you hear Hey girl, what you say girl About you and me getting away girl.

Billy Currington - Hey Girl. Music video by Billy Currington performing Hey Girl. C) 2013 Mercury Records, a Division of UMG Recordings, Inc. views 410. Repetition on the radio 82. play. Billy Currington Hey Girl. it/mx8xto?IQid YouTube. More. Radio stations where the song sounded. United States of America 5698.


General
Complete name : Billy Currington - Hey Girl [Music Video] 1080p [Sbyky].mp4
Format : MPEG-4
Format profile : Base Media / Version 2
Codec ID : mp42
File size : 78.5 MiB
Duration : 3mn 27s
Overall bit rate mode : Variable
Overall bit rate : 3 175 Kbps
Encoded date : UTC 2013-06-25 18:23:22
Tagged date : UTC 2013-06-25 18:23:22
Video
ID : 1
Format : AVC
Format/Info : Advanced Video Codec
Format profile : [email protected]
Format settings, CABAC : Yes
Format settings, ReFrames : 1 frame
Codec ID : avc1
Codec ID/Info : Advanced Video Coding
Duration : 3mn 27s
Bit rate : 2 981 Kbps
Maximum bit rate : 5 804 Kbps
Width : 1 920 pixels
Height : 1 080 pixels
Display aspect ratio : 16:9
Frame rate mode : Constant
Frame rate : 23.976 fps
Color space : YUV
Chroma subsampling : 4:2:0
Bit depth : 8 bits
Scan type : Progressive
Bits/(Pixel*Frame) : 0.060
Stream size : 73.7 MiB (94%)
Tagged date : UTC 2013-06-25 18:23:25
Audio
ID : 2
Format : AAC
Format/Info : Advanced Audio Codec
Format profile : LC
Codec ID : 40
Duration : 3mn 27s
Bit rate mode : Variable
Bit rate : 192 Kbps
Maximum bit rate : 203 Kbps
Channel(s) : 2 channels
Channel positions : Front: L R
Sampling rate : 44.1 KHz
Compression mode : Lossy
Stream size : 4.75 MiB (6%)
Title : IsoMedia File Produced by Google, 5-11-2011
Encoded date : UTC 2013-06-25 18:23:24
Tagged date : UTC 2013-06-25 18:23:25
Shared By Sbyky

Comments:
Gna
Gna
thanks. Keep it up
Related music:
Pitbull Ft Ke$ha - Timber 1080p Music Video download Pitbull Ft Ke$ha - Timber 1080p Music Video
Video
English
85.8 MB
4.4
/images/5/7/pitbull-ft-ke24ha-timber-1080p-music-video-.jpg
PSY - Gentleman 1080p Music Video download PSY - Gentleman 1080p Music Video
Video
English
145.3 MB
4.7
/images/5/2/psy-gentleman-1080p-music-video-.jpg
J Cole - Work Out 1080p Music Video download J Cole - Work Out 1080p Music Video
Video
English
153.3 MB
4.1
/images/5/3/j-cole-work-out-1080p-music-video-.jpg
Little Mix - Little Me 1080p Music Video download Little Mix - Little Me 1080p Music Video
Video
English
74.7 MB
4.9
/images/5/1/little-mix-little-me-1080p-music-video-.jpg
INNA - Wow 1080p Music Video download INNA - Wow 1080p Music Video
Video
English
152.3 MB
4.0
/images/noimage.jpg
Wiz Khalifa Ft Akon - Let It Go 1080p Music Video download Wiz Khalifa Ft Akon - Let It Go 1080p Music Video
Video
English
117.5 MB
4.2
/images/5/6/wiz-khalifa-ft-akon-let-it-go-1080p-music-video-.jpg
Stromae - Papaoutai 1080p Music Video download Stromae - Papaoutai 1080p Music Video
Video
French
83.4 MB
4.5
/images/5/3/stromae-papaoutai-1080p-music-video-.jpg
Billy Currington - Hey Girl 720p Music Video download Billy Currington - Hey Girl 720p Music Video
Video
English
36.5 MB
4.2
/images/5/1/billy-currington-hey-girl-720p-music-video-.jpg
Passenger - Let Her Go 1080p Music Video download Passenger - Let Her Go 1080p Music Video
Video
English
86.7 MB
4.2
/images/5/0/passenger-let-her-go-1080p-music-video-.jpg