Files 42316
» » Lady Gaga - G U Y 720p An ARTPOP Film
Language: English
Size: 161.4 MB
Votes: 023
Downloaded: 43
Category: Video
Format: MP3, FLAC
4.8

File list

  • Lady Gaga - G.U.Y. [An ARTPOP Film] 720p [Sbyky].MP4 (161.4 MB)


General
Complete name : Lady Gaga - G.U.Y. [An ARTPOP Film] 720p [Sbyky].MP4
Format : MPEG-4
Format profile : Base Media
Codec ID : isom
File size : 161 MiB
Duration : 11mn 46s
Overall bit rate mode : Variable
Overall bit rate : 1 916 Kbps
Encoded date : UTC 2014-03-21 21:56:16
Tagged date : UTC 2014-03-21 21:56:16
Video
ID : 1
Format : AVC
Format/Info : Advanced Video Codec
Format profile : [email protected]
Format settings, CABAC : Yes
Format settings, ReFrames : 3 frames
Codec ID : avc1
Codec ID/Info : Advanced Video Coding
Duration : 11mn 46s
Bit rate : 1 787 Kbps
Width : 1 280 pixels
Height : 720 pixels
Display aspect ratio : 16:9
Frame rate mode : Variable
Frame rate : 23.976 fps
Minimum frame rate : 23.974 fps
Maximum frame rate : 24.390 fps
Color space : YUV
Chroma subsampling : 4:2:0
Bit depth : 8 bits
Scan type : Progressive
Bits/(Pixel*Frame) : 0.081
Stream size : 151 MiB (93%)
Encoded date : UTC 2014-03-21 21:56:16
Tagged date : UTC 2014-03-21 21:56:16
Audio
ID : 2
Format : AAC
Format/Info : Advanced Audio Codec
Format profile : LC
Codec ID : 40
Duration : 11mn 46s
Bit rate mode : Variable
Bit rate : 126 Kbps
Channel(s) : 2 channels
Channel positions : Front: L R
Sampling rate : 44.1 KHz
Compression mode : Lossy
Stream size : 10.6 MiB (7%)
Encoded date : UTC 2014-03-21 21:56:10
Tagged date : UTC 2014-03-21 21:56:10
Shared By Sbyky

Related music:
Kim Cesarion - Undressed 720p Music Video download Kim Cesarion - Undressed 720p Music Video
Video
English
32.9 MB
4.4
/images/5/9/kim-cesarion-undressed-720p-music-video-.jpg
Agnez Mo Ft Timbaland & T I - Coke Bottle 720p Music Video download Agnez Mo Ft Timbaland & T I - Coke Bottle 720p Music Video
Video
English
70.6 MB
4.4
/images/5/6/agnez-mo-ft-timbaland-26-t-i-coke-bottle-720p-music-video-.jpg
Jennifer Lopez Ft French Montana - I Luh Ya Papi 720p download Jennifer Lopez Ft French Montana - I Luh Ya Papi 720p
Video
English
85.4 MB
4.7
/images/5/6/jennifer-lopez-ft-french-montana-i-luh-ya-papi-720p-.jpg
Iggy Azalea Ft Rita Ora - Black Widow 720p Music Video download Iggy Azalea Ft Rita Ora - Black Widow 720p Music Video
Video
English
49.2 MB
4.5
/images/5/1/iggy-azalea-ft-rita-ora-black-widow-720p-music-video-.jpg
Fall Out Boy - Where Did The Party Go 720p Music Video download Fall Out Boy - Where Did The Party Go 720p Music Video
Video
English
46.7 MB
4.9
/images/5/7/fall-out-boy-where-did-the-party-go-720p-music-video-.jpg
Katy Perry Ft Juicy J - Dark Horse 720p Music Video download Katy Perry Ft Juicy J - Dark Horse 720p Music Video
Video
English
55.1 MB
4.8
/images/5/9/katy-perry-ft-juicy-j-dark-horse-720p-music-video-.jpg
50 Cent Ft Kidd Kidd - Everytime I Come Around 720p download 50 Cent Ft Kidd Kidd - Everytime I Come Around 720p
Video
English
51.9 MB
4.9
/images/5/0/50-cent-ft-kidd-kidd-everytime-i-come-around-720p-.jpg