Files 42316
» » J Cole Ft Miguel - Power Trip 720p
Language: English
Size: 36.4 MB
Votes: 431
Downloaded: 13
Category: Video
Format: MP3, FLAC
4.9

File list

  • J. Cole Ft. Miguel - Power Trip [Explicit] 720p [Sbyky].mp4 (36.4 MB)

Cole's official music video for 'Power Trip feat.

Cole's official music video for 'Power Trip feat. As featured on Born Sinner. She on a power trip, she got me where she want a nigga Wifin' in the club, man my homies gon' disown a nigga Like, give me 20 dolla, dolla Ass stupid, how you get to college, college I'm in your city and I'm wonderin' if you're home now Went and found a man, but I'm hopin' you alone. now Can't help but feelin' like I dropped the ball, cliche?

Power Trip - J. Cole (feat.

Power Trip - J.

Got me up all night All I'm singin' is love songs She got me up all night Constant drinkin' and love songs She got me up all night Down-and-out with these love songs She got me up all night Drownin' out with these love songs She got me up all night (Yeah) All I'm singin'. She on a power trip, she got me where she want a nigga Wife'ing in the club, man, my homies gon' disown a nigga Like, "Give me twenty dollars, dollars!" Ass stupid, how you get to college, college?

J. Cole & Travis Scott) Genres: Hip-Hop/Rap Release: May 23, 2019 ℗ 2019 300 Entertainment, Atlantic Recording Corporation.

DOWNLOAD, СКАЧАТЬ purpemojsingle. J. Cole, Travis Scott. Cole & Travis Scott). DOWNLOAD, СКАЧАТЬ londonsingle.

Miguel Power Trip? Заходите на наш сайт - слушайте и скачивайте музыку бесплатно

Miguel Power Trip? Заходите на наш сайт - слушайте и скачивайте музыку бесплатно. Для вас мы собрали всё самое лучшее. She on a power trip, she got me where she want a nigga Wifin’ in the club and my homies gon’ disown a nigga Like – give me twenty dollars, dollars That’s stupid, how’d you get to college, college? I’m in your city and I’m wonderin’ if you’re home now Went and found a man, but I’m hopin’ you alone now Can’t help but feel like I dropped the ball, clichй I used to pop up on you at the mall each day Typically, I kick game like East Bay But you got a nigga freeze framed

Видеоклип американского рэп-исполнителя J. Cole совместно с Miguel на песню Power Trip из альбома Born Sinner . 21 Savage, Miguel - Show Me Love. ole - Family and Loyalty. Cole & Travis Scott - The London.

Видеоклип американского рэп-исполнителя J. Cole совместно с Miguel на песню Power Trip из альбома Born Sinner (2013). Cole - Middle Child. Ari Lennox & J. Cole - Shea Butter Baby.


General
Complete name : J. Cole Ft. Miguel - Power Trip [Explicit] 720p [Sbyky].mp4
Format : MPEG-4
Format profile : Base Media / Version 2
Codec ID : mp42
File size : 36.4 MiB
Duration : 4mn 2s
Overall bit rate mode : Variable
Overall bit rate : 1 256 Kbps
Encoded date : UTC 2013-04-11 14:47:34
Tagged date : UTC 2013-04-11 14:47:34
Video
ID : 1
Format : AVC
Format/Info : Advanced Video Codec
Format profile : [email protected]
Format settings, CABAC : Yes
Format settings, ReFrames : 1 frame
Codec ID : avc1
Codec ID/Info : Advanced Video Coding
Duration : 4mn 2s
Bit rate : 1 061 Kbps
Maximum bit rate : 2 317 Kbps
Width : 1 280 pixels
Height : 720 pixels
Display aspect ratio : 16:9
Frame rate mode : Constant
Frame rate : 23.976 fps
Color space : YUV
Chroma subsampling : 4:2:0
Bit depth : 8 bits
Scan type : Progressive
Bits/(Pixel*Frame) : 0.048
Stream size : 30.7 MiB (85%)
Tagged date : UTC 2013-04-11 14:48:05
Audio
ID : 2
Format : AAC
Format/Info : Advanced Audio Codec
Format profile : LC
Codec ID : 40
Duration : 4mn 2s
Bit rate mode : Variable
Bit rate : 192 Kbps
Maximum bit rate : 203 Kbps
Channel(s) : 2 channels
Channel positions : Front: L R
Sampling rate : 44.1 KHz
Compression mode : Lossy
Stream size : 5.56 MiB (15%)
Title : IsoMedia File Produced by Google, 5-11-2011
Encoded date : UTC 2013-04-11 14:47:53
Tagged date : UTC 2013-04-11 14:48:05
Shared By Sbyky

Related music:
2 Chainz - I'm Different 720p download 2 Chainz - I'm Different 720p
Video
English
76.5 MB
4.3
/images/5/0/2-chainz-i27m-different-720p-.jpg
Eminem - Berzerk 720p download Eminem - Berzerk 720p
Video
English
97.3 MB
4.2
/images/5/9/eminem-berzerk-720p-.jpg
John Legend - All Of Me 720p Music Video download John Legend - All Of Me 720p Music Video
Video
English
62.7 MB
4.1
/images/5/4/john-legend-all-of-me-720p-music-video-.jpg
2 Chainz Ft Cap 1 - Where U Been 720p download 2 Chainz Ft Cap 1 - Where U Been 720p
Video
English
84.8 MB
4.7
/images/5/6/2-chainz-ft-cap-1-where-u-been-720p-.jpg
Ke$ha - Dirty Love 720p Music Video download Ke$ha - Dirty Love 720p Music Video
Video
English
77.0 MB
4.1
/images/5/7/ke24ha-dirty-love-720p-music-video-.jpg
Keyshia Cole - I Choose You 720p Music Video download Keyshia Cole - I Choose You 720p Music Video
Video
English
68.3 MB
4.1
/images/5/5/keyshia-cole-i-choose-you-720p-music-video-.jpg
J Cole - Work Out 720p Music Video download J Cole - Work Out 720p Music Video
Video
English
79.9 MB
4.2
/images/5/9/j-cole-work-out-720p-music-video-.jpg
Little Mix - Little Me 720p Music Video download Little Mix - Little Me 720p Music Video
Video
English
37.9 MB
4.1
/images/5/5/little-mix-little-me-720p-music-video-.jpg
Rihanna - Pour It Up 720p download Rihanna - Pour It Up 720p
Video
English
54.9 MB
4.7
/images/5/1/rihanna-pour-it-up-720p-.jpg