Files 42316
» » Florida Georgia Line - Round Here 1080p Music Video
Language: English
Size: 131.2 MB
Votes: 740
Downloaded: 15
Category: Video
Format: MP3, FLAC
4.8

File list

  • Florida Georgia Line - Round Here [Music Video] 1080p [Sbyky].mp4 (131.2 MB)

Florida Georgia Line - Round Here - Продолжительность: 3:37 Florida Georgia Line Recommended for you.

Florida Georgia Line - Round Here - Продолжительность: 3:37 Florida Georgia Line Recommended for you. 3:37. Just for Laugh Gags Compilation - 2 Hours - (HD) 720p - Продолжительность: 2:02:14 Just for Laugh Gags Compilations Recommended for you. 2:02:14. TOP 10 BEST Got Talent Singers auditions EVER!

Round here by Florida Georgia Line. Ignore the people singing haha. Опубликовано: 30 сент. 2014 г. Round here by Florida Georgia Line.

Round here by Florida Georgia Line. Toby Keith surprises wife with her returning soldier husband - Продолжительность: 12:20 NashvilleGab Recommended for you. 12:20. Страна: США. Безопасный режим: выкл.

Music video · 2013 · 3:26 min Free with Apple Music subscription. More By Florida Georgia Line. See All. Meant to Be (feat. Florida Georgia Line).

Florida Georgia Line. Produced by Joey Moi. Album Here’s To The Good Times. Hammer and a nail, stacking them bales I'm dog tired by the 5:00 hour But I'm ready to raise some hell And Jesse's getting ready, I'm gassing up the Chevy I'm gonna pick her up at six I hope she's gonna wear the jeans with the tear That her mama never fixed.

Round Here (Florida Georgia Line song). Round Here" is a song recorded by American country music duo Florida Georgia Line. It was released in June 2013 as the third single from their album Here's to the Good Times. It was written by Rodney Clawson, Chris Tompkins, and Thomas Rhett. The music video was directed by Peter Zavadil and premiered in June 2013. It was filmed in the duo's hometowns, Ormond Beach, Florida and Monroe, Georgia.


General
Complete name : Florida Georgia Line - Round Here [Music Video] 1080p [Sbyky].mp4
Format : MPEG-4
Format profile : Base Media / Version 2
Codec ID : mp42
File size : 131 MiB
Duration : 3mn 36s
Overall bit rate mode : Variable
Overall bit rate : 5 083 Kbps
Encoded date : UTC 2013-05-28 01:22:51
Tagged date : UTC 2013-05-28 01:22:51
Video
ID : 1
Format : AVC
Format/Info : Advanced Video Codec
Format profile : [email protected]
Format settings, CABAC : Yes
Format settings, ReFrames : 1 frame
Codec ID : avc1
Codec ID/Info : Advanced Video Coding
Duration : 3mn 36s
Bit rate : 4 888 Kbps
Maximum bit rate : 9 437 Kbps
Width : 1 920 pixels
Height : 1 080 pixels
Display aspect ratio : 16:9
Frame rate mode : Constant
Frame rate : 23.976 fps
Color space : YUV
Chroma subsampling : 4:2:0
Bit depth : 8 bits
Scan type : Progressive
Bits/(Pixel*Frame) : 0.098
Stream size : 126 MiB (96%)
Tagged date : UTC 2013-05-28 01:22:56
Audio
ID : 2
Format : AAC
Format/Info : Advanced Audio Codec
Format profile : LC
Codec ID : 40
Duration : 3mn 36s
Bit rate mode : Variable
Bit rate : 192 Kbps
Maximum bit rate : 201 Kbps
Channel(s) : 2 channels
Channel positions : Front: L R
Sampling rate : 44.1 KHz
Compression mode : Lossy
Stream size : 4.96 MiB (4%)
Title : IsoMedia File Produced by Google, 5-11-2011
Encoded date : UTC 2013-05-28 01:22:55
Tagged date : UTC 2013-05-28 01:22:56
Shared By Sbyky

Related music:
PSY - Gentleman 1080p Music Video download PSY - Gentleman 1080p Music Video
Video
English
145.3 MB
4.7
/images/5/2/psy-gentleman-1080p-music-video-.jpg
Florida Georgia Line - Get Your Shine On 720p Music Video download Florida Georgia Line - Get Your Shine On 720p Music Video
Video
English
71.6 MB
4.0
/images/5/2/florida-georgia-line-get-your-shine-on-720p-music-video-.jpg
J Cole - Work Out 1080p Music Video download J Cole - Work Out 1080p Music Video
Video
English
153.3 MB
4.1
/images/5/3/j-cole-work-out-1080p-music-video-.jpg
Little Mix - Little Me 1080p Music Video download Little Mix - Little Me 1080p Music Video
Video
English
74.7 MB
4.9
/images/5/1/little-mix-little-me-1080p-music-video-.jpg
INNA - Wow 1080p Music Video download INNA - Wow 1080p Music Video
Video
English
152.3 MB
4.0
/images/noimage.jpg
Wiz Khalifa Ft Akon - Let It Go 1080p Music Video download Wiz Khalifa Ft Akon - Let It Go 1080p Music Video
Video
English
117.5 MB
4.2
/images/5/6/wiz-khalifa-ft-akon-let-it-go-1080p-music-video-.jpg
Stromae - Papaoutai 1080p Music Video download Stromae - Papaoutai 1080p Music Video
Video
French
83.4 MB
4.5
/images/5/3/stromae-papaoutai-1080p-music-video-.jpg
Florida Georgia Line - Round Here 720p Music Video download Florida Georgia Line - Round Here 720p Music Video
Video
English
67.8 MB
4.2
/images/5/9/florida-georgia-line-round-here-720p-music-video-.jpg
Passenger - Let Her Go 1080p Music Video download Passenger - Let Her Go 1080p Music Video
Video
English
86.7 MB
4.2
/images/5/0/passenger-let-her-go-1080p-music-video-.jpg